Warrior 2011 TS XViD - U.S.M

seeders: 2
leechers: 2
Added on Nov 18, 2011 in Movies
Torrent verified. Downloaded 8 times.

Summary:
The youngest son of an alcoholic former boxer returns home, where he's trained by his father for competition in a mixed martial arts tournament - a path that puts the fighter on a collision corner with his older brother.
Submitted by 5fingerdis44.63K
report summary
Warrior 2011 TS XViD - U.S.M (Size: 2.01 GB)
  Torrent downloaded from Demonoid.me.txt 46 bytes
  sample.avi 12.08 MB
  Warrior 2011 TS XViD - U.S.M.nfo 4.29 KB
  Torrent downloaded from extratorrent.com.txt 353 bytes
  Warrior 2011 TS XViD - U.S.M.avi 2 GB

Description




warrior 2011 TS XViD - U.S.M


SOURCES:

Warrior.2011.720p.HDCAM.TNZ
reCodeM8-KinG RG

IMDB:

http://www.imdb.com/title/tt1291584/

Video
ID : 0
Format : MPEG-4 Visual
Format profile : Advanced Simple@L5
Format settings, BVOP : 2
Format settings, QPel : No
Format settings, GMC : No warppoints
Format settings, Matrix : Default (MPEG)
Muxing mode : Packed bitstream
Codec ID : XVID
Codec ID/Hint : XviD
Duration : 2h 7mn
Bit rate : 2 102 Kbps
Width : 720 pixels
Height : 288 pixels
Display aspect ratio : 2.500
Frame rate : 25.000 fps
Color space : YUV
Chroma subsampling : 4:2:0
Bit depth : 8 bits
Scan type : Progressive
Compression mode : Lossy
Bits/(Pixel*Frame) : 0.405
Stream size : 1.87 GiB (94%)
Writing library : XviD 64

Audio
ID : 1
Format : MPEG Audio
Format version : Version 1
Format profile : Layer 3
Codec ID : 55
Codec ID/Hint : MP3
Duration : 2h 7mn
Bit rate mode : Constant
Bit rate : 128 Kbps
Channel(s) : 2 channels
Sampling rate : 44.1 KHz
Compression mode : Lossy
Stream size : 117 MiB (6%)
Alignment : Split accross interleaves
Interleave, duration : 40 ms (1.00 video frame)
Interleave, preload duration : 500 ms


WORKDONE:

Ok we were lucky enough to be given some nice 720p file for this to work with .....still had a fair
amount of issues but better having source files.
ANyway the video was full of noise and had loads of glares and brightness levels way too high,which made
the noise stand out even more....
So ....what we did was made a script to crop,resize,heavy noise filter and dropped that into vdub.From there
there was still alot of noise so opted to run a HQ smoother over it and made it darker by changing the contrast
and brightness levels.Also used a RGB EQ to balance out the colours.
Audio we stripped off recodem8\'s release and and had to resync it in parts as in was oos in 3 places ranging from
-100 - -350ms.
Check sample for Q.

SCREENIES:





Related Torrents

torrent name size files age seed leech

Sharing Widget


Download torrent
2.01 GB
seeders:2
leechers:2
Warrior 2011 TS XViD - U.S.M

Trackers

tracker name Status checked seeders leechers downloads
http://10.rarbg.com/announce
private 09 May 2012 - - -
http://tracker.ex.ua/announce
outdated 18 Nov 2011 - - -
http://tracker.openbittorrent.com/announce
outdated 18 Nov 2011 - - -
udp://tracker.openbittorrent.com:80/announce
outdated 18 Nov 2011 - - -
http://inferno.demonoid.me:3410/announce
outdated 18 Nov 2011 - - -
udp://tracker.publicbt.com:80/announce
outdated 18 Nov 2011 - - -
http://exodus.desync.com:6969/announce
blocked 23 Aug 2012 - - -
http://tracker.publicbt.com/announce
deleted 18 Nov 2011 - - -
http://9.rarbg.com:2710/announce
private 18 Nov 2011 - - -
ĀµTorrent compatible trackers list

Locations

name
ExtraTorrent
Fenopy
Torrent hash: 1e96475d6cfede23d910f28e8f655f8f288f8aa4

All Comments

audio
8/10
video
8/10
please, leave only comments related to that torrent
or sign-in
0
vi0lent1689 • 20 November 2011, 21:52
torrent downloaded
Show comment
audio: 6video: 6
watchable for sure. thx uploader
0
bustnbronco3502 • 19 November 2011, 01:32
torrent downloaded
Show comment
Thanks uploader!! Much appreciated :))
0
bustnbronco3502 • 19 November 2011, 01:31
torrent downloaded
Show comment
audio: 8video: 8
Looks better than avg cam! It could be clearer but I give it an 8 all round for A & V
0
stestalker170 • 18 November 2011, 14:30
torrent downloaded
Show comment
audio: 10video: 10
this is the real deal cheers bud been waiting ages for this film!

User Opinions

Report a bug