Viswaroopam (2013) - Telugu - DVDSCR - 600 MB ~{ CRAZYCHINNI }~

seeders: 19
leechers: 1
Added on Feb 5, 2013 in Movies > Asian
Torrent verified. Downloaded 10 times.

Viswaroopam (2013) - Telugu - DVDSCR - 600 MB ~{ CRAZYCHINNI }~ (Size: 585.78 MB)
  Viswaroopam (2013) - Telugu - DVDSCR - 600 MB ~CRAZYCHINNI~.mp4 585.78 MB

Description

Viswaroopam (2013) - Telugu - DVDSCR - 600 MB ~CRAZYCHINNI~






Directed by Kamal Haasan
Produced by
Chandra Haasan
Kamal Haasan
Written by Kamal Haasan
Atul Tiwari
Starring Kamal Haasan
Pooja Kumar
Andrea Jeremiah
Rahul Bose
Jaideep Ahlawat
Music by Shankar-Ehsaan-Loy
Cinematography Sanu Varghese
Editing by Mahesh Narayanan
Studio Raaj Kamal Films International
Distributed by PVP Films
Balaji Motion Pictures
Release date(s)
25 January 2013 (Worldwide except Tamil Nadu)
1 February 2013 (Hindi version)
7 February 2013 (Tamil Nadu)
Running time 147 minutes
Country India
Language TELUGU

SCREEN SHOTS:

THE AUDIO IS IN TELUGU LANGUAGE !!!

THANKS AND REGARDS TO ~~
CRAZYCHINNI

Format : MPEG-4
Format profile : Base Media / Version 2
Codec ID : mp42
File size : 586 MiB
Duration : 2h 26mn
Overall bit rate mode : Variable
Overall bit rate : 560 Kbps
Encoded date : UTC 2013-02-04 06:19:46
Tagged date : UTC 2013-02-04 06:38:58
Writing application : HandBrake 0.9.8 2012071700

Video
ID : 1
Format : AVC
Format/Info : Advanced Video Codec
Format profile : Main@L2.1
Format settings, CABAC : Yes
Format settings, ReFrames : 4 frames
Codec ID : avc1
Codec ID/Info : Advanced Video Coding
Duration : 2h 26mn
Bit rate mode : Variable
Bit rate : 400 Kbps
Width : 600 pixels
Height : 256 pixels
Display aspect ratio : 2.35:1
Frame rate mode : Variable
Frame rate : 24.479 fps
Minimum frame rate : 0.521 fps
Maximum frame rate : 25.000 fps
Color space : YUV
Chroma subsampling : 4:2:0
Bit depth : 8 bits
Scan type : Progressive
Bits/(Pixel*Frame) : 0.106
Stream size : 418 MiB (71%)
Writing library : x264 core 120


Audio
ID : 2
Format : AAC
Format/Info : Advanced Audio Codec
Format profile : LC
Codec ID : 40
Duration : 2h 26mn
Bit rate mode : Variable
Bit rate : 157 Kbps
Maximum bit rate : 248 Kbps
Channel(s) : 2 channels
Channel positions : Front: L R
Sampling rate : 44.1 KHz
Compression mode : Lossy
Delay relative to video : 80ms
Stream size : 164 MiB (28%)
Language : telugu
Encoded date : UTC 2013-02-04 06:19:46
Tagged date : UTC 2013-02-04 06:38:57

Sharing Widget


Download torrent
585.78 MB
seeders:19
leechers:1
Viswaroopam (2013) - Telugu - DVDSCR - 600 MB ~{ CRAZYCHINNI }~

Trackers

tracker name Status checked seeders leechers downloads
udp://tracker.openbittorrent.com:80/announce
active 15 Sep 2014 12 0 10
udp://tracker.istole.it:80/announce
active 15 Sep 2014 19 1 10
http://pow7.com/announce
active 15 Sep 2014 0 0 0
udp://tracker.publicbt.com:80/announce
active 15 Sep 2014 13 1 10
udp://tracker.1337x.org:80/announce
outdated 26 Oct 2013 - - -
udp://fr33domtracker.h33t.com:3310/announce
deleted 26 Oct 2013 - - -
http://tracker.novalayer.org:6969/announce
pending 26 Oct 2013 0 0 0
ĀµTorrent compatible trackers list

Locations

name
ExtraTorrent
Torrent hash: 5D45306F6B0B83925EA45811C0BD70811F97B9B3

All Comments

audio
3/10
video
5/10
please, leave only comments related to that torrent
or sign-in
0
sumanth19119 • 17 June 2014, 20:36
torrent downloaded
Show comment
audio: 4video: 7
-1
sandy9985 • 09 December 2013, 03:39 Show comment
lekapothey atleast e movie torrent ni aiyna na mail id ki pampandi sandhyaranisr999@gmail.com
0
anonymous • 05 January 2014, 19:29 Show comment
same here geeteshreddy92@gmail.com
-1
sandy9985 • 09 December 2013, 03:39 Show comment
lekapothey atleast e movie torrent ni aiyna na mail id ki pampandi
-1
sandy9985 • 09 December 2013, 03:38 Show comment
movie tvaraga cheyandi nen e movie ni miss aiyanu
0
sandy9985 • 09 December 2013, 03:38 Show comment
plzzzzzzzzz
0
sandy9985 • 09 December 2013, 03:38 Show comment
viswaroopam ttelugu blue ray upload cheyandi plzzzzzzzzzzzzzzz
0
anonymous • 12 November 2013, 16:21 Show comment
dude plz upload telugu.....or change title to camrip... It's not dvdrip... :(
0
anonymous • 03 November 2013, 16:49 Show comment
http://kickass.to/vishwaroopam-2013-dvdrip-1cd-xvid-ripji-t7312525.html I THINK IT MAY HELP FOR TELEGU VEWEIRS
0
anonymous • 15 March 2014, 13:42 Show comment
it is showing page not found
0
vinodraj114 • 29 August 2014, 11:39 Show comment
Copy up to .html dude even its not telugu
Show More

User Opinions

lestrange16004, devbrawk2318, TIFN1039, Lummox618, xkbr396, kchaitanya863324, vivek554291, manu_awesome236, Sridhar24120, smartlove57349 ... And 18 more
praveen59107443, gavriil1201, praneethreddics264, zinlee250, 9000435167, SonaKumar71, jaush47, sunnyshah918, brazen_dude13, raajkun6 ... And 2 more
Report a bug