Underworld Awakening 2012 R5 DVDRip XVID AC3-5 1 HQ Hive-CM8

seeders: 1
leechers: 0
Added on Feb 16, 2012 in Movies
Torrent verified. Downloaded 0 times.

Underworld Awakening 2012 R5 DVDRip XVID AC3-5 1 HQ Hive-CM8 (Size: 1.36 GB)
  subs
  Read this before playing this Video.txt 222 bytes
  sample.avi 14.81 MB
  Torrent have been downloaded from Scenetime.com.txt 222 bytes
  Underworld.Awakening.2012.R5.DVDRip.XVID.AC3-5.1.HQ.Hive-CM8.avi 1.34 GB
  Underworld.Awakening.2012.R5.DVDRip.XVID.AC3-5.1.HQ.Hive-CM8.nfo 4.89 KB

Description

.
..............................Site Info...........................

- http://www.scenetime.com *_*

SceneTime is going to Close sign up on march/1, hurry up! get in before the doors are closed.

We care to share . Join us on http://www.scenetime.com

Be the first to get new release at http://www.scenetime.com

Seed back for speed


...................................NFO:.................................................imageUnderworld.Awakening.2012.R5.DVDRip.XVID.AC3-5.1.HQ.Hive-CM8 Thx Hive

CM8 Doing It Right The First Time :DSources:
Video: Russian DVD-5 Drygoi.mir.Probuzjdenie.2012.DVD-5
Audio: SIC`s full LINE and the russian 5.1 audio track
thx guys

Video Encode:
DVD had great quality so i could make a very nice video. Added brightness, sharpness, rgb and denoise.
Also slightly adjusted contrast to let you see more in the darkness.

Audio Encode:
Took sics full line, cleaned all kind of noise issues till it got very clear. Fixed around 10 oos spots.
Noticed that the first 2 mins is a different line than the rest of the movie, also loudness wasnt constant
for both lines, fixed levels. Both lines sounded totally different, fixed that as good as possible.
Took the russian audiotrack and cleaned out all kind of russian voices - were a lot in this movie.
Entered the line back into the russian track and "bang" sounds retailish now.
And all the nice sourround effects are now inside, which gives the movie the extra kick.
Also added full subs in /subs dir for the ones who need it.

got very very nice, check sample
will do perfectly till the bluray comes around.
enjoy

Video: 720x304 @bitrate 1800 2pass
Audio: English AC3 5.1 @448
Subs: English for foreign parts only were already hardcoded
full subs in /srt subs
Sample: Yes, included


http://www.imdb.com/title/tt1496025/General
Complete name : Underworld.Awakening.2012.R5.DVDRip.XVID.AC3-5.1.HQ.Hive-CM8.avi
Format : AVI
Format/Info : Audio Video Interleave
File size : 1.34 GiB
Duration : 1h 25mn
Overall bit rate : 2 255 Kbps
Writing application : Nandub v1.0rc2
Writing library : Nandub build 1853/release

Video
ID : 0
Format : MPEG-4 Visual
Format profile : Advanced Simple@L5
Format settings, BVOP : 2
Format settings, QPel : Yes
Format settings, GMC : No warppoints
Format settings, Matrix : Default (H.263)
Muxing mode : Packed bitstream
Codec ID : XVID
Codec ID/Hint : XviD
Duration : 1h 25mn
Bit rate : 1 798 Kbps
Width : 720 pixels
Height : 304 pixels
Display aspect ratio : 2.35:1
Frame rate : 25.000 fps
Color space : YUV
Chroma subsampling : 4:2:0
Bit depth : 8 bits
Scan type : Progressive
Compression mode : Lossy
Bits/(Pixel*Frame) : 0.329
Stream size : 1.07 GiB (80%)
Writing library : XviD 1.2.1 (UTC 2008-12-04)

Audio
ID : 1
Format : AC-3
Format/Info : Audio Coding 3
Mode extension : CM (complete main)
Codec ID : 2000
Duration : 1h 25mn
Bit rate mode : Constant
Bit rate : 448 Kbps
Channel(s) : 6 channels
Channel positions : Front: L C R, Side: L R, LFE
Sampling rate : 48.0 KHz
Bit depth : 16 bits
Compression mode : Lossy
Stream size : 273 MiB (20%)
Alignment : Split accross interleaves
Interleave, duration : 40 ms (1.00 video frame)
Interleave, preload duration : 500 msPlot:
When human forces discover the existence of the Vampire and Lycan clans, a war to eradicate
both species commences. The vampire warrioress Selene leads the battle against humankind.Cast:
Kate Beckinsale ... Selene
Stephen Rea ... Dr. Jacob Lane
Michael Ealy ... Detective Sebastian
India Eisley ... Eveimage
image
image
image
image
image
image
image
Greetz

ViSiON,SPK,SceneLovers,PRESTiGE,SANTi,3LT0N,YanKeeS,COPYxRIGHT,THC,T0XiC
D2U,LKRG,Feel-Free,FLAWL3SS,WBZ,BHRG,26K,NOVA,SeToNeUp,TED,MAGNET,jtr
Unevano,Rapeseed,SAFC,goldadvance,KaN1vE,Pinnz,Wayne
Mr Hive,and most P2P groups
Great Work Guys :D

LOOKING FOR ANYTHING YOU WANT TO LOOK AND SOUND BETTER

CM8@hushmail.com

Related Torrents

torrent name size files age seed leech

Sharing Widget


Download torrent
1.36 GB
seeders:1
leechers:0
Underworld Awakening 2012 R5 DVDRip XVID AC3-5 1 HQ Hive-CM8

Trackers

tracker name Status checked seeders leechers downloads
udp://tracker.publicbt.com:80/announce
outdated 16 Feb 2012 - - -
http://tracker.openbittorrent.com/announce
outdated 16 Feb 2012 - - -
udp://tracker.openbittorrent.com:80/announce
outdated 16 Feb 2012 - - -
http://tracker.publicbt.com/announce
deleted 11 Mar 2013 - - -
µTorrent compatible trackers list

Locations

name
ThePirateBay
Limetorrents
Torrent hash: db6eb34f96402a14ba77868b32b111a3bd453773

All Comments

audio
0/10
video
0/10
please, leave only comments related to that torrent
or sign-in

User Opinions

Report a bug