U zemlji krvi i meda avi(In the Land of Blood and Honey (encode by MASKOMBAT))

seeders: 2
leechers: 1
Added on Mar 19, 2012 by MASKOMBAT8946 in Movies
Torrent verified. Downloaded 10 times.

Summary:
No summary yet
Available in versions: 720pBDRipHDRiPDVDDVDRipScreenerCam
U zemlji krvi i meda avi(In the Land of Blood and Honey (encode by MASKOMBAT)) (Size: 1.07 GB)
  In the Land of Blood and Honey 2011.avi 1.05 GB
  In the Land of Blood and Honey 2011.idx 33.23 KB
  In the Land of Blood and Honey 2011.sub 2.09 MB
  Readme.txt 2.08 KB
  sample.avi 14.46 MB
  vlcsnap-2012-03-19-19h48m07s150.jpg 11.37 KB
  vlcsnap-2012-03-19-19h50m22s225.jpg 9.68 KB

Description

In the Land of Blood and Honey (encoded by MASKOMBAT)


General

Complete name : U zemlji krvi i medaIn the Land of Blood and Honey 2011 .avi
Format : AVI
Format/Info : Audio Video Interleave
File size : 1.05 GiB
Duration : 2h 7mn
Overall bit rate : 1 178 Kbps
Movie name : U Zemlji Krvi i Meda 2011
Writing application : Lavf52.33.0
Original source form/Name : Source: VODRip AC3-5.1 StoneBoyTony
Language : English
Subs : Dutch (.idx , .sub)
: Croatian(Hrvatski)

Video

ID : 0
Format : xvid
Codec ID : xvid
Duration : 2h 7mn
Bit rate : 783 Kbps
Width : 640 pixels
Height : 274 pixels
Display aspect ratio : 2.35:1
Frame rate : 29.970 fps
Bits/(Pixel*Frame) : 0.149
Stream size : 713 MiB (66%)

Audio
ID : 1
Format : AC-3
Format/Info : Audio Coding 3
Mode extension : CM (complete main)
Codec ID : 2000
Duration : 2h 7mn
Bit rate mode : Constant
Bit rate : 384 Kbps
Channel(s) : 6 channels
Channel positions : Front: L C R, Side: L R, LFE
Sampling rate : 48.0 KHz
Bit depth : 16 bits
Compression mode : Lossy
Stream size : 350 MiB (33%)
Alignment : Aligned on interleaves
Interleave, duration : 32 ms (0.96 video frame)
Interleave, preload duration : 32 ms


Pleas people remember the community and seed your downloads
Don't HIT AND RUN it's so much better to share ;)

Sharing Widget


Download torrent
1.07 GB
seeders:2
leechers:1
U zemlji krvi i meda avi(In the Land of Blood and Honey (encode by MASKOMBAT))

Trackers

tracker name Status checked seeders leechers downloads
udp://tracker.istole.it:80/announce
outdated 24 Jun 2014 - - -
udp://tracker.openbittorrent.com:80/announce
outdated 24 Jun 2014 - - -
udp://tracker.publicbt.com:80/announce
outdated 19 Jul 2013 - - -
http://tracker.torrentbay.to:6969/announce
outdated 19 Jul 2013 - - -
http://tracker.istole.it/announce
outdated 19 Jul 2013 - - -
http://10.rarbg.com/announce
private 19 Jul 2013 - - -
http://cpleft.com:2710/announce
outdated 19 Jul 2013 - - -
udp://tracker.1337x.org:80/announce
outdated 19 Jul 2013 - - -
http://exodus.desync.com:6969/announce
blocked 19 Jul 2013 - - -
µTorrent compatible trackers list

Locations

name
KickassTorrents
Torrent hash: A5C4B84B0629D213391A80D2BC388D586F95EAE9

Uploader Comments

0
MASKOMBAT8946 • 02 Apr 2012, 17:35
torrent downloaded
Uvijek možete ostaviti komentar biggrin
You can always leave a feedback biggrin

All Comments

audio
0/10
video
0/10
please, leave only comments related to that torrent
or sign-in
1
anonymous • 03 June 2012, 12:00 Show comment
Super! Samo ima titlove na meni nepoznatom jeziku, samo da se njih makne bilo bi dobro. Hvala
0
MASKOMBAT8946 • 02 April 2012, 17:35
torrent downloaded
Show comment
Uvijek možete ostaviti komentar biggrin
You can always leave a feedback biggrin

User Opinions

Mrk11262
Report a bug