TT Closer To The Edge 2011 DVDRiP AC3 5.1 XViD -U.S.M

seeders: 18
leechers: 2
Added on Nov 27, 2011 by legend64275 in Movies
Torrent verified. Downloaded 10 times.

Available in versions: 1080p720pHDRiPDVDRip
TT Closer To The Edge 2011 DVDRiP AC3 5.1 XViD -U.S.M (Size: 1.37 GB)
  TT Closer To The Edge 2011 DVDRiP AC3 5.1 XViD - U.S.M.avi 1.37 GB
  TT Closer To The Edge 2011 DVDRiP AC3 5.1 XViD - U.S.M.nfo 3.94 KB
  Torrent downloaded from extratorrent.com.txt 353 bytes

Description


image


UUUUUUUU UUUUUUUU SSSSSSSSSSSSSSS MMMMMMMM MMMMMMMM 
U::::::U U::::::U SS:::::::::::::::S M:::::::M M:::::::M 
U::::::U U::::::U S:::::SSSSSS::::::S M::::::::M M::::::::M 
UU:::::U U:::::UU S:::::S SSSSSSS M:::::::::M M:::::::::M 
U:::::U U:::::U S:::::S M::::::::::M M::::::::::M 
U:::: D:::::U S:::::S M:::::::::::M M:::::::::::M 
U:::: D:::::U S::::SSSS M:::::::M::::M M::::M:::::::M 
U:::: D:::::U SS::::::SSSSS M::::::M M::::M M::::M M::::::M 
U:::: D:::::U SSS::::::::SS M::::::M M::::M::::M M::::::M 
U:::: D:::::U SSSSSS::::S M::::::M M:::::::M M::::::M 
U:::: D:::::U S:::::S M::::::M M:::::M M::::::M 
U::::::U U::::::U S:::::S M::::::M MMMMM M::::::M 
U:::::::UUU:::::::U SSSSSSS S:::::S M::::::M M::::::M 
 UU:::::::::::::UU ...... S::::::SSSSSS:::::S ...... M::::::M M::::::M 
 UU:::::::::UU .::::. S:::::::::::::::SS .::::. M::::::M M::::::M 
 UUUUUUUUU ...... SSSSSSSSSSSSSSS ...... MMMMMMMM MMMMMMMM 



TT Closer To The Edge 2011 DVDRiP AC3 5.1 XViD - U.S.M


SOURCES:

TT CLOSER TO THE EDGE 2011 PAL DVDR Legend-Rg

IMDB:

www.imdb.com/title/tt1698010/

Video
ID : 0
Format : MPEG-4 Visual
Format profile : Advanced Simple@L5
Format settings, BVOP : 2
Format settings, QPel : No
Format settings, GMC : No warppoints
Format settings, Matrix : Default (MPEG)
Muxing mode : Packed bitstream
Codec ID : XVID
Codec ID/Hint : XviD
Duration : 1h 39mn
Bit rate : 1 522 Kbps
Width : 720 pixels
Height : 384 pixels
Display aspect ratio : 1.875
Frame rate : 25.000 fps
Color space : YUV
Chroma subsampling : 4:2:0
Bit depth : 8 bits
Scan type : Progressive
Compression mode : Lossy
Bits/(Pixel*Frame) : 0.220
Stream size : 1.06 GiB (77%)
Writing library : XviD 64

Audio
ID : 1
Format : AC-3
Format/Info : Audio Coding 3
Mode extension : CM (complete main)
Codec ID : 2000
Duration : 1h 39mn
Bit rate mode : Constant
Bit rate : 448 Kbps
Channel(s) : 6 channels
Channel positions : Front: L C R, Side: L R, LFE
Sampling rate : 48.0 KHz
Bit depth : 16 bits
Compression mode : Lossy
Stream size : 318 MiB (23%)
Alignment : Aligned on interleaves
Interleave, duration : 40 ms (1.00 video frame)
Interleave, preload duration : 512 ms



WORKDONE:

Straight forward rip really ....made a d2v file off the dvd,then made a script that contained crop,resize,sharpen only.
Audio stripped from dvd then remuxed to the encode.
Check sample for Q.

SCREENIES:

image
image
image
image
image

Related Torrents

torrent name size files age seed leech

Sharing Widget


Download torrent
1.37 GB
seeders:18
leechers:2
TT Closer To The Edge 2011 DVDRiP AC3 5.1 XViD -U.S.M

Trackers

tracker name Status checked seeders leechers downloads
udp://tracker.openbittorrent.com:80/announce
outdated 10 Nov 2013 - - -
udp://tracker.publicbt.com:80/announce
outdated 10 Nov 2013 - - -
udp://tracker.1337x.org:80/announce
outdated 27 Jun 2013 - - -
http://ipv4.tracker.harry.lu/announce
outdated 27 Jun 2013 - - -
http://10.rarbg.com/announce
private 27 Jun 2013 - - -
http://tracker.openbittorrent.com/announce
outdated 27 Jun 2013 - - -
http://tracker.pow7.com/announce
outdated 27 Jun 2013 - - -
http://tracker.ex.ua/announce
outdated 27 Jun 2013 - - -
http://tracker.torrentbay.to:6969/announce
outdated 27 Jun 2013 - - -
http://exodus.desync.com:6969/announce
blocked 27 Jun 2013 - - -
http://tracker.publicbt.com/announce
deleted 27 Jun 2013 - - -
http://fr33dom.h33t.com:3310/announce
deleted 27 Jun 2013 - - -
µTorrent compatible trackers list

Locations

name
KickassTorrents
ThePirateBay
ExtraTorrent
Torrent hash: E3E16B023D803E3F77832512E1DAF8E888F43CDA

All Comments

audio
9/10
video
9/10
please, leave only comments related to that torrent
or sign-in
0
iguana_m14501 • 06 November 2013, 10:24
torrent downloaded
Show comment
awesome rip!!!!!!!!!!!!!!!!!!!
0
JibbWhistle1060 • 14 November 2012, 22:33
torrent downloaded
Show comment
audio: 10video: 10
0
Holm3s798 • 30 June 2012, 10:40
torrent downloaded
Show comment
audio: 10video: 10
The Guy is a nutter what a quality film
-1
anonymous • 28 June 2012, 02:27 Show comment
They are speaking "English" but the main character's (Guy Martin) accent is so intense I can barely understand him bein from the US. Beautifully shot movie, would have loved to have seen it in 3D
0
duser4 • 23 June 2012, 17:39 Show comment
What language are these guys speaking and how do I get the subtitles?
0
anonymous • 09 September 2012, 17:30 Show comment
haha english mate , were you from mate .
0
carl19797960 • 23 June 2012, 15:56
torrent downloaded
Show comment
audio: 10video: 10
0
odemirgen87 • 19 June 2012, 18:09
torrent downloaded
Show comment
audio: 8video: 7
0
brushwood20111164 • 17 June 2012, 08:18
torrent downloaded
Show comment
Thank you for the upload.
1
Thhaque314663 • 09 June 2012, 06:02
torrent downloaded
Show comment
audio: 9video: 9
Show More

User Opinions

barchetta5488, Fireman58444403, Al4rion3445, zara_babu_binns1863, CripesDM1424, shwartzi866, boubla383, rooster78276, emz1101, Jacober200916 ... And 93 more
cdrlos52
Report a bug