Tropa de ELite 2

seeders: 0
leechers: 1
Added on May 17, 2013 by ramonccj24 in Movies
Downloaded 0 times.

Summary:
After a prison riot, former-Captain Nascimento, now a high ranking security officer in Rio de Janeiro, is swept into a bloody political dispute that involves government officials and paramilitary groups.
Submitted by 5fingerdis46.97K
report summary
Available in versions: 1080p720pHDRiPDVDDVDRip
Tropa de ELite 2 (Size: 3.19 GB)
  Tropa de elite 2 1080p.mp4 3.19 GB
  7371538SZ.ico 261.84 KB
  7371538SZ.jpg 44.32 KB

Description

BLURAY ORIGINAL: Mais ou menos 35 000 Kbps (taxa de vídeo) 50 GB

ESSE AI DE BAIXO: Exatamente 3 825 Kbps (taxa de vídeo) 3.19 GB



image


General

Format : MPEG-4
Format profile : Base Media / Version 2
Codec ID : mp42
File size : 3.19 GiB
Duration : 1h 54mn
Overall bit rate : 3 980 Kbps


Video
ID : 1
Format : AVC
Format/Info : Advanced Video Codec
Format profile : High@L4.0
Format settings, CABAC : Yes
Format settings, ReFrames : 1 frame
Format settings, GOP : M=1, N=48
Codec ID : avc1
Codec ID/Info : Advanced Video Coding
Duration : 1h 54mn
Bit rate mode : Variable
Bit rate : 3 825 Kbps
Maximum bit rate : 16.3 Mbps
Width : 1 920 pixels
Height : 1 080 pixels
Display aspect ratio : 16:9
Frame rate mode : Constant
Frame rate : 23.976 fps
Color space : YUV
Chroma subsampling : 4:2:0
Bit depth : 8 bits
Scan type : Progressive
Bits/(Pixel*Frame) : 0.077
Stream size : 3.07 GiB (96%)
Tagged date : UTC 2012-04-02 09:37:38

Audio
ID : 2
Format : AAC
Format/Info : Advanced Audio Codec
Format profile : LC
Codec ID : 40
Duration : 1h 54mn
Bit rate mode : Variable
Bit rate : 152 Kbps
Maximum bit rate : 240 Kbps
Channel(s) : 2 channels
Channel positions : Front: L R
Sampling rate : 44.1 KHz
Compression mode : Lossy
Stream size : 125 MiB (4%)
Title : IsoMedia File Produced by Google, 5-11-2011

Related Torrents

torrent name size files age seed leech

Sharing Widget


Download torrent
3.19 GB
seeders:0
leechers:1
Tropa de ELite 2

Trackers

tracker name Status checked seeders leechers downloads
udp://tracker.publicbt.com:80/announce
outdated 18 May 2013 - - -
udp://tracker.istole.it:80/announce
outdated 18 May 2013 - - -
udp://tracker.openbittorrent.com:80/announce
outdated 18 May 2013 - - -
udp://fr33domtracker.h33t.com:3310/announce
deleted 18 May 2013 - - -
udp://tracker.ccc.de:80/announce
deleted 18 May 2013 - - -
µTorrent compatible trackers list

Locations

name
KickassTorrents
Torrent hash: 03DD47787FBB5E12716A4DB070C806676244DD8C

All Comments

audio
0/10
video
0/10
please, leave only comments related to that torrent
or sign-in

User Opinions


maumeg58
Report a bug