Toy Story (hablada en español)

seeders: 22
leechers: 6
Added on Nov 3, 2009 in Movies
Downloaded 10 times.

Toy Story (hablada en español) (Size: 701.71 MB)
  Toy.Story.SP.DVDRip-XviD-AC3-Emystein.avi 701.71 MB

Description



General

Complete name : D:\download\Toy.Story.SP.DVDRip-XviD-AC3-Emystein.avi

Format : AVI

Format/Info : Audio Video Interleave

File size : 702 MiB

Duration : 1h 20mn

Overall bit rate : 1 217 Kbps

Writing application : VirtualDubMod 1.5.4.1 (build 2178/release)

Writing library : VirtualDubMod build 2178/release



Video

ID : 0

Format : MPEG-4 Visual

Format profile : AdvancedSimple@L5

Format settings, BVOP : Yes

Format settings, QPel : No

Format settings, GMC : No warppoints

Format settings, Matrix : Custom

Codec ID : XVID

Codec ID/Hint : XviD

Duration : 1h 20mn

Bit rate : 826 Kbps

Width : 640 pixels

Height : 368 pixels

Display aspect ratio : 16:9

Frame rate : 23.976 fps

Resolution : 24 bits

Colorimetry : 4:2:0

Scan type : Progressive

Bits/(Pixel*Frame) : 0.146

Stream size : 476 MiB (68%)

Writing library : XviD 1.2.1 (UTC 2008-12-04)



Audio

ID : 1

Format : AC-3

Format/Info : Audio Coding 3

Codec ID : 2000

Duration : 1h 20mn

Bit rate mode : Constant

Bit rate : 384 Kbps

Channel(s) : 6 channels

Channel positions : Front: L C R, Surround: L R, LFE

Sampling rate : 48.0 KHz

Stream size : 221 MiB (32%)

Alignment : Split accross interleaves

Interleave, duration : 96 ms (2.30 video frames)

Interleave, preload duration : 96 ms

Language : Spanish

Sharing Widget


Download torrent
701.71 MB
seeders:22
leechers:6
Toy Story (hablada en español)

Trackers

tracker name Status checked seeders leechers downloads
udp://tracker.openbittorrent.com:80/announce
outdated 02 Apr 2013 - - -
udp://tracker.publicbt.com:80/announce
outdated 02 Apr 2013 - - -
http://tracker.openbittorrent.com/announce
outdated 02 Apr 2013 - - -
http://tracker.publicbt.com/announce
deleted 02 Apr 2013 - - -
µTorrent compatible trackers list

Locations

name
Mininova
SumoTorrent
Torrent hash: 122464ce3a1a3e2621fd3ffd8d2ea72f30e9d574

All Comments

audio
0/10
video
0/10
please, leave only comments related to that torrent
or sign-in
Report a bug