Tower.Heist.2011.TS.XVID.AC3.Hive-CM8

seeders: 9
leechers: 1
Added on Nov 15, 2011 by hail_alpha66.28K in Movies
Torrent verified. Downloaded 15 times.

Tower.Heist.2011.TS.XVID.AC3.Hive-CM8 (Size: 1.44 GB)
  HDSceneRG.txt 115 bytes
  Torrent downloaded from Demonoid.me.txt 46 bytes
  Torrent downloaded from Suprnova.me.txt 42 bytes
  Tower.Heist.2011.TS.XVID.AC3.Hive-CM8.avi 1.42 GB
  Tower.Heist.2011.TS.XVID.AC3.Hive-CM8.nfo 4.44 KB
  att-networks.com.txt 39 bytes
  sample.avi 14.75 MB
  Sceneunderground.org.txt 77 bytes

Description

image

Tower.Heist.2011.TS.XVID.AC3.Hive-CM8


Thx Hive

CM8 Doing It Right The First Time 

Sources:

Video: floppydisk thx
Audio: misere thx

Encode:

german video had awesome quality, the first 10 mins are 3 different cams as it seems which are bit overbrightened or glary but after that quality is dvdscr like. good job. just sharpened video and made slight changes in brightness and contrast for some parts. looks very good

for the audio, well its a line, but had some problems, had some weird echo and unsynchronity between left and right channel, fixed that.
cleaned it through. its a lot better now, some words in sentences were already muffled cant do anything about that.
Fixed a couple of oose spots i found while syncing it back to the german video.
check sample.
all in all very watchable now.
enjoy

Video: 720x304 @bitrate 1800 2pass
Audio: English AC3 2.0 Stereo
Sample: yes included


http://www.imdb.com/title/tt0471042/


General
Complete name : Tower.Heist.2011.TS.XVID.AC3.Hive-CM8.avi
Format : AVI
Format/Info : Audio Video Interleave
File size : 1.42 GiB
Duration : 1h 38mn
Overall bit rate : 2 064 Kbps
Writing application : Nandub v1.0rc2
Writing library : Nandub build 1853/release

Video
ID : 0
Format : MPEG-4 Visual
Format profile : Advanced Simple@L5
Format settings, BVOP : 2
Format settings, QPel : Yes
Format settings, GMC : No warppoints
Format settings, Matrix : Default (H.263)
Muxing mode : Packed bitstream
Codec ID : XVID
Codec ID/Hint : XviD
Duration : 1h 38mn
Bit rate : 1 799 Kbps
Width : 720 pixels
Height : 304 pixels
Display aspect ratio : 2.35:1
Frame rate : 23.976 fps
Color space : YUV
Chroma subsampling : 4:2:0
Bit depth : 8 bits
Scan type : Progressive
Compression mode : Lossy
Bits/(Pixel*Frame) : 0.343
Stream size : 1.24 GiB (87%)
Writing library : XviD 1.2.1 (UTC 2008-12-04)

Audio
ID : 1
Format : AC-3
Format/Info : Audio Coding 3
Mode extension : CM (complete main)
Codec ID : 2000
Duration : 1h 38mn
Bit rate mode : Constant
Bit rate : 256 Kbps
Channel(s) : 2 channels
Channel positions : Front: L R
Sampling rate : 48.0 KHz
Bit depth : 16 bits
Compression mode : Lossy
Delay relative to video : 80ms
Stream size : 181 MiB (12%)
Alignment : Split accross interleaves
Interleave, duration : 42 ms (1.00 video frame)
Interleave, preload duration : 500 ms


Plot:

When a group of hard working guys find out they've fallen victim to a wealthy business man's Ponzi scheme, 
they conspire to rob his high-rise residence. 
Cast:

Ben Stiller	... Josh Kovacs
Eddie Murphy	... Slide
Casey Affleck	... Charlie
Alan Alda	... Arthur Shaw
Matthew Broderick	... Mr. Fitzhugh


Screens:
image
image
image
image
image
image
image

Related Torrents

torrent name size files age seed leech

Sharing Widget


Download torrent
1.44 GB
seeders:9
leechers:1
Tower.Heist.2011.TS.XVID.AC3.Hive-CM8

Trackers

tracker name Status checked seeders leechers downloads
http://inferno.demonoid.me:3410/announce
outdated 20 Aug 2014 - - -
udp://tracker.publicbt.com:80/announce
outdated 20 Aug 2014 - - -
udp://tracker.openbittorrent.com:80/announce
outdated 20 Aug 2014 - - -
http://announce.torrentsmd.com:6969/announce
outdated 20 Aug 2014 - - -
http://cpleft.com:2710/announce
outdated 14 Sep 2013 - - -
http://tracker.openbittorrent.com/announce
outdated 14 Sep 2013 - - -
udp://tracker.1337x.org:80/announce
outdated 14 Sep 2013 - - -
http://secure.pow7.com/announce
outdated 14 Sep 2013 - - -
http://tracker.torrentbay.to:6969/announce
outdated 14 Sep 2013 - - -
http://exodus.desync.com/announce
blocked 14 Sep 2013 - - -
http://exodus.desync.com:6969/announce
blocked 14 Sep 2013 - - -
http://tracker.publicbt.com/announce
deleted 14 Sep 2013 - - -
http://fr33dom.h33t.com:3310/announce
deleted 14 Sep 2013 - - -
http://tracker.novalayer.org:6969/announce
pending 14 Sep 2013 2647 908 6163
µTorrent compatible trackers list

Locations

name
KickassTorrents
ThePirateBay
Limetorrents
Torrent hash: 69668B29B4B7B593EB48AD4230BBF066E933FC40

Top Comments

3
Bluefrog0oo1574 • 29 Jan 2012, 19:59
audio: 6video: 6
Thanks.
2
anonymous • 29 Jan 2012, 07:32
didnt work...
2
Thhaque324.76K • 26 May 2012, 18:47
audio: 6video: 8
thankyou uploader, great job for a cam

All Comments

audio
5/10
video
6/10
please, leave only comments related to that torrent
or sign-in
0
anonymous • 02 November 2013, 09:27 Show comment
thanks
0
tushar9031237 • 31 October 2013, 18:14
torrent downloaded
Show comment
audio: 5video: 6
good
0
tushar9031237 • 31 October 2013, 18:13
torrent downloaded
Show comment
good
0
abhi_nino4201 • 23 October 2013, 12:00
torrent downloaded
Show comment
audio: 7video: 6
Thanks uploader
0
fred_cc30 • 12 October 2013, 01:51
torrent downloaded
Show comment
looks like it was recorded off a VHS tape
0
HopenDarkness74.17K • 29 September 2013, 13:09
torrent downloaded
Show comment
audio: 6video: 5
0
jaybobkenedy5226 • 16 August 2012, 15:22
torrent downloaded
Show comment
audio: 5video: 6
thanks great job for a cam
Show More

User Opinions

q8djent5287, TeGiiGii4477, BuFu2138, markozlatni1300, chatty461001, dilipkk821, stan502, spicykracker260, sauce606991116, applegenius79 ... And 406 more
pepsiking3075, Double-D881831, Rockstar Games™1544, dugongo1477, aharris829289, guest11241, mad_dogg192, hahaidownloadedit180, Poetiq73, imDawg63 ... And 71 more
Report a bug