To the Devil a Daughter 1976 DVDRip GoGo

seeders: 6
leechers: 0
Added on May 21, 2010 by fasamoo16.7K in Movies
Torrent verified. Downloaded 10 times.

Summary:
No summary yet
Available in versions: DVDRip
To the Devil a Daughter 1976 DVDRip GoGo (Size: 700.26 MB)
  gogo.txt 3.95 KB
  To the Devil a Daughter 1976 DVDRip GoGo.avi 700.26 MB
  Torrent downloaded from AhaShare.com.txt 59 bytes
  Torrent downloaded from Demonoid.com.txt 47 bytes
  Torrent downloaded from extratorrent.com.txt 71 bytes
  Torrent downloaded from thepiratebay.org.txt 48 bytes

Description

image

image



image



image



IMDB Link:http://www.imdb.com/title/tt0075334/



Plot:An excommunicated priest sets up a satanic cult that only looks Catholic on the outside. He convinces a man to sign over his daughter's soul so that she will become the devil's representative on earth on her eighteenth birthday, but as that day nears, the man seeks the help of an American occult novelist to save his daughter, both physically and spiritually.



image

image

image

image

image

image

image

image



General

Complete name                    : To the Devil a Daughter 1976 DVDRip GoGo\To the Devil a Daughter 1976 DVDRip GoGo.avi

Format                           : AVI

Format/Info                      : Audio Video Interleave

File size                        : 700 MiB

Duration                         : 1h 32mn

Overall bit rate                 : 1 054 Kbps

Writing application              : VirtualDubMod 1.5.4.1 (build 2178/release)

Writing library                  : VirtualDubMod build 2178/release



Video

ID                               : 0

Format                           : MPEG-4 Visual

Format profile                   : Advanced Simple@L5

Format settings, BVOP            : Yes

Format settings, QPel            : No

Format settings, GMC             : No warppoints

Format settings, Matrix          : Custom

Codec ID                         : XVID

Codec ID/Hint                    : XviD

Duration                         : 1h 32mn

Bit rate                         : 940 Kbps

Width                            : 608 pixels

Height                           : 352 pixels

Display aspect ratio             : 16:9

Frame rate                       : 23.976 fps

Resolution                       : 8 bits

Colorimetry                      : 4:2:0

Scan type                        : Progressive

Bits/(Pixel*Frame)               : 0.183

Stream size                      : 625 MiB (89%)

Writing library                  : XviD 1.2.1 (UTC 2008-12-04)



Audio

ID                               : 1

Format                           : MPEG Audio

Format version                   : Version 1

Format profile                   : Layer 3

Mode                             : Joint stereo

Format_Settings_ModeExtension    : MS Stereo

Codec ID                         : 55

Codec ID/Hint                    : MP3

Duration                         : 1h 32mn

Bit rate mode                    : Variable

Bit rate                         : 101 Kbps

Nominal bit rate                 : 128 Kbps

Channel(s)                       : 2 channels

Sampling rate                    : 48.0 KHz

Stream size                      : 67.1 MiB (10%)

Alignment                        : Aligned on interleaves

Interleave, duration             : 24 ms (0.58 video frame)

Interleave, preload duration     : 650 ms

Writing library                  : LAME3.98r

Encoding settings                : -m j -V 4 -q 2 -lowpass 17 --abr 128

Language                         : English

Subtitles                        : None

Genre                            : Horror | Mystery | Thriller



 

Related Torrents

torrent name size files age seed leech

Sharing Widget


Download torrent
700.26 MB
seeders:6
leechers:0
To the Devil a Daughter 1976 DVDRip GoGo

Trackers

tracker name Status checked seeders leechers downloads
udp://tracker.openbittorrent.com:80/announce
outdated 17 Sep 2014 - - -
udp://tracker.publicbt.com:80/announce
outdated 17 Sep 2014 - - -
http://tracker.openbittorrent.com/announce
outdated 15 Apr 2013 - - -
http://genesis.1337x.org:1337/announce
outdated 15 Apr 2013 - - -
http://nemesis.1337x.org/announce
outdated 15 Apr 2013 - - -
http://tracker.publicbt.com/announce
deleted 15 Apr 2013 - - -
µTorrent compatible trackers list

Locations

name
KickassTorrents
ThePirateBay
1337x
ExtraTorrent
Torrent hash: b3b6302097427025e9e00620212b718d500a7185

All Comments

audio
9/10
video
9/10
please, leave only comments related to that torrent
or sign-in
0
allanwoo2182 • 23 June 2014, 12:17
torrent downloaded
Show comment
audio: 8video: 8
A lot of great horror movies were made in the 70s, and this is one of them,I enjoyed it. Thank you for sharing uploader and seeders.
0
drkat30 • 10 June 2014, 16:30
torrent downloaded
Show comment
THANKS! Loved this movie!
0
Blunts732193 • 30 August 2013, 22:32
torrent downloaded
Show comment
audio: 9video: 9
Thank you :)
0
subversion952 • 17 June 2013, 06:51 Show comment
hows the quality? screens look ok?
0
RalphRover514 • 23 May 2013, 03:44 Show comment
audio: 9video: 9
Superb copy - thanks. Enjoyed the film too, despite the bad reviews it received from Hammer fans.
0
RichardSorge2711 • 13 February 2011, 06:36
torrent downloaded
Show comment
audio: 9video: 9
0
FizzyWilber335 • 09 January 2011, 09:43
torrent downloaded
Show comment
audio: 10video: 10
great, thanks.
0
Nodin1469 • 06 January 2011, 17:54
torrent downloaded
Show comment
audio: 9video: 9

User Opinions

marhang4822, whodat64843323, RichardSorge2711, mike84431493, afactor1478, dsmorgus597, TONYNINER557, Nodin1469, [Dibbly]420, FizzyWilber335 ... And 8 more
kavyass433
Report a bug