THREE - Survival Island 2005

seeders: 0
leechers: 0
Added on Mar 21, 2010 in Movies
Torrent verified. Downloaded 0 times.

Available in versions: Blu-RayDVDRip
THREE - Survival Island 2005 (Size: 810.05 MB)
  THREE - 2005 - Billy Zane, Kelly Brook, Juan Pablo Di Pace.divx 810.05 MB

Description

THREE - Survival Island 2005 -


Three people marooned on a desert island, only one will survive.

Three arrive...one survives. Wealthy businessman Jack Matson and his beautiful wife Jennifer are on a vacation in the Caribbean. Their vacation is cut short, however, when handsome Latin boatman Manual causes the yacht to sink. Washed ashore, Jack & Jennifer find they must fend for themselves to survive, but Manuel appears! Stars Billy Zane, Kelly Brook, Juan Pablo di Pace.

Jack, a millionaire (Billy Zane, TITANIC), and his gorgeous wife, Jennifer (Kelly Brook, THE ITALIAN JOB), become marooned on an island after a yachting accident. Here, outside the laws of class and money, they become dependent on Manuel, a resourceful and hunky deck hand who also survived the wreck. Soon, Jennifer becomes romantically involved with Manuel, and, Jack, in jealous rage, plots revenge. In an ironic instance of life imitating art, Billy Zane and Kelly Brook became romantically involved during the shooting of the film, and the two of them sued to prevent some of the steamy sex-scene shots from being used--apparently Zane really had become jealous.


Category : Cult, Adventure, Thriller, Suspense, Drama
Starring : Billy Zane, Kelly Brook, Juan Pablo Di Pace
Directed by : Stewart Raffill
Company : Thema Production
Duration: 1h 31mn
File size: 810MB
Language : Italian
Codec : DivX
English Subtitles Click here and choose Free User, extract compressed file and place it in the same film directory. Enjoy
Opinion:


Code:GeneralComplete name : THREE - 2005 - Billy Zane, Kelly Brook, Juan Pablo Di Pace.divxFormat : AVIFormat/Info : Audio Video InterleaveFile size : 810 MiBDuration : 1h 31mnOverall bit rate : 1 235 KbpsWriting application : DivX 3.2.0.0252IDFV : DMF 2.0.0VideoID : 0Format : MPEG-4 VisualFormat settings, BVOP : YesFormat settings, QPel : NoFormat settings, GMC : No warppointsFormat settings, Matrix : Default (H.263)Muxing mode : Packed bitstreamCodec ID : DX50Codec ID/Hint : DivX 5Duration : 1h 31mnBit rate : 1 100 KbpsWidth : 704 pixelsHeight : 400 pixelsDisplay aspect ratio : 16:9Frame rate : 25.000 fpsResolution : 8 bitsColorimetry : 4:2:0Scan type : ProgressiveBits/(Pixel*Frame) : 0.156Stream size : 722 MiB (89%)Title : Video Writing library : DivX 6.8.5 (UTC 2009-08-20)AudioID : 1Format : MPEG AudioFormat version : Version 1Format profile : Layer 3Mode : Joint stereoFormat_Settings_ModeExtension : MS StereoCodec ID : 55Codec ID/Hint : MP3Duration : 1h 31mnBit rate mode : ConstantBit rate : 128 KbpsChannel(s) : 2 channelsSampling rate : 48.0 KHzStream size : 84.0 MiB (10%)Alignment : Split accross interleavesInterleave, duration : 40 ms (1.00 video frame)Interleave, preload duration : 500 msTitle : Audio Writing library : LAME3.92
THREE - Survival Island 2005 - ReviewHave a good download.
If you can rest in seed!
Thanks
If you like this U/L, Click and leave a review.

Related Torrents

torrent name size files age seed leech

Sharing Widget


Download torrent
810.05 MB
seeders:0
leechers:0
THREE - Survival Island 2005

Trackers

tracker name Status checked seeders leechers downloads
udp://tracker.openbittorrent.com:80/announce
outdated 08 Jan 2014 - - -
udp://tracker.publicbt.com:80/announce
outdated 08 Jan 2014 - - -
http://tracker.openbittorrent.com/announce
outdated 28 Sep 2013 - - -
http://tracker.publicbt.com/announce
deleted 28 Sep 2013 - - -
ĀµTorrent compatible trackers list

Locations

name author
ExtraTorrent
1337x
Torrent hash: 9e25b9d1408ecbe097409037cf9f370225910f31

All Comments

audio
9/10
video
9/10
please, leave only comments related to that torrent
or sign-in
0
bluedadars329 • 25 January 2014, 05:44 Show comment
audio: 10video: 8
0
SONIA_KHAN5398 • 31 December 2013, 14:22
torrent downloaded
Show comment
audio: 8video: 9
NICE & FINE !
0
vhgopal143505 • 04 May 2013, 10:03
torrent downloaded
Show comment
thanx for sharing
0
So_Sharpen41 • 03 July 2012, 06:09
torrent downloaded
Show comment
audio: 10video: 10
good
0
private376201448 • 19 February 2011, 20:46
torrent downloaded
Show comment
NOT IN ENGLISH
0
anonymous • 16 August 2010, 02:06 Show comment
audio: 10video: 10
It's in spanish

User Opinions

SONIA_KHAN5398, mario74enzzi1293, Brett_Ross1167, Filip281101, Daniel Dass688, Umair_Javed491, ismail250bak311, giannisole11, dadg21043, tlfnfal0 ... And 15 more
osama19711395, bakeer415, abhi923214, llekos47, Opie8838
Report a bug