The War Between The States & The Undefeated Southern Truth

seeders: 5
leechers: 2
Added on Jan 1, 2009 in Movies
Downloaded 687 times.

The War Between The States & The Undefeated Southern Truth (Size: 698.11 MB)
  The.War.Between.The.States.DVDrip.720x540.xvid.mp3-snach.avi 698.11 MB
  Torrent downloaded from Demonoid.com.txt 47 bytes
  tracked_by_h33t_com.txt 23 bytes

Description

--This is my DVDrip of a VHSrip of this great doc--

The War Between The States And The Undefeated Southern Truth


Program Info:
The end of the documentary also the title:
"The War Between The States And The Federal Government"

This is a rip from the .iso file that jamesers upped(cheers!) that can be found here:
http://tracker.conspiracycentral.net/torrents-details.php?id=3984&hit=1

This video will give you a definitive understanding of America's most critical war. The contents of this video are designed to present the untold history of the planning and events that led to war. Topics covered include: slavery; how some blacks owned white slaves in Virginia; abolitionists, and how that movement was taken over for the purpose of pushing America into war; how the Constitution was the target and victim of the war. This video explains the European connection, and the foreign infiltration into the Confederate government itself; the tracing of a continuum of secession attempts dating back to 1804; the illegality of reconstruction and the creation of the 14th Amendment Citizenship hoax; and everything needed to trace the roots of today's power hungry Federal Government.

Interviews include: John Hurley, President of the Confederate Embassy in Washington D.C. speaks on Southern Culture. Eustice Mullens presents the evidence of the lesser known 'intrigues' that created the war. Randy Geiszler speaks on the legal ramifications of the war affecting the Constitution, Martial Law and the 13th and 14th Amendments. Professor Edward Smith covers the 'Black' issues of the war including the Northern slave industry as well as discussion of the Blacks who served in the Confederacy. Other issues covered are Secession, States Rights, Reconstruction, Carpetbaggers, the Dred Scott Decision, and much more, including biographical profiles of the Who's Who in this catalog of treason.

This video is spiced up with reenactment scenes on the battlefield and with titles and graphics that assist the viewer in getting the names and facts straight. This is a one of a kind video documentary that covers the subjects avoided by the establishment."

Please don't complain about the quality...this is the best you'll get of a rare doc for free. And if you know what year this came out, say so, I'll add it to the info.


Video Info:
The.War.Between.The.States.DVDrip.720x540.xvid.mp3-snach.avi

Format : AVI
Format/Info : Audio Video Interleave
File size : 698 MiB
Duration : 2h 8mn
Overal bit rate : 762 Kbps
Movie name : The War Between The States & The Undefeated Southern Truth
Writing application : MEncoder MasterSoft for Vista

Video
Format : MPEG-4 Visual
Format profile : Simple@L3
Format settings, BVOP : No
Format settings, QPel : No
Format settings, GMC : No warpoints
Format settings, Matrix : Default
Codec ID : XVID
Codec ID/Hint : XviD
Duration : 2h 8mn
Bit rate : 620 Kbps
Width : 720 pixels
Height : 540 pixels
Display aspect ratio : 4/3
Frame rate : 29.970 fps
Resolution : 8 bits
Colorimetry : 4:2:0
Scan type : Progressive
Bits/(Pixel*Frame) : 0.053
Stream size : 568 MiB
Writing library : XviD 1.1.2 (UTC 2006-11-01)

Audio
Format : MPEG Audio
Format version : Version 1
Format profile : Layer 3
Codec ID : 55
Codec ID/Hint : MP3
Duration : 2h 8mn
Bit rate mode : Constant
Bit rate : 128 Kbps
Channel(s) : 2 channels
Sampling rate : 48.0 KHz
Resolution : 16 bits
Stream size : 117 MiB
Writing library : LAME3.97


Trackers(for you to add):
http://tracker.conspiracycentral.net/announce
http://tracker.thepiratebay.org:80/announce
http://denis.stalker.h3q.com:6969/announce
http://open.tracker.thepiratebay.org/announce
http://torrent-downloads.to:5869/announce

Visit & Join us at:
http://tracker.ConspiracyCentral.net

Enjoy & Seed!

Related Torrents

torrent name size files age seed leech

Sharing Widget


Download torrent
698.11 MB
seeders:5
leechers:2
The War Between The States & The Undefeated Southern Truth

Trackers

tracker name Status checked seeders leechers downloads
http://torrent-downloads.to:5869/announce
outdated 14 Jul 2013 - - -
http://tracker.openbittorrent.com/announce
outdated 14 Jul 2013 - - -
http://tracker.ccc.de/announce
outdated 14 Jul 2013 - - -
http://www.h33t.com:3310/announce
deleted 09 Nov 2012 - - -
http://inferno.demonoid.com:3403/announce
error 04 Apr 2010 - - -
http://tracker.conspiracycentral.net/announce
error 22 Apr 2009 - - -
µTorrent compatible trackers list

Locations

name
ThePirateBay
TorrentReactor
Mininova
Mininova
ExtraTorrent
Torrent hash: a5d6a14bada45346d2832d2f62f43d5e6f0b3c44

All Comments

audio
0/10
video
0/10
please, leave only comments related to that torrent
or sign-in
0
anonymous • 02 July 2013, 05:53 Show comment
Blacks holding white slaves in Virginia? Right. You fucking racist scum will do anything to justify yourselves. The south lost and will never rise again.
0
chainmanslb967 • 15 April 2010, 00:40
torrent downloaded
Show comment
not the best quality, but watchable

User Opinions

Report a bug