The.Twilight.Saga.Breaking.Dawn.Part.1.2011.Cam.x264.Feel-Free

seeders: 40
leechers: 8
Added on Nov 20, 2011 by feel-free19979 in Movies
Torrent verified. Downloaded 19,824 times.

Description

image


Genre:Adventure | Drama | Fantasy
Language:English
IMDb:http://www.imdb.com/title/tt1324999/
Source::RUSSIAN/BiDA Thanks!

Format : MPEG-4
Format profile : Base Media
Codec ID : isom
File size : 1.25 GiB
Duration : 1h 43mn
Overall bit rate : 1 731 Kbps

Video
ID : 1
Format : AVC
Format/Info : Advanced Video Codec
Format profile : High@L5.1
Format settings, CABAC : Yes
Format settings, ReFrames : 3 frames
Format settings, GOP : M=1, N=2
Codec ID : avc1
Codec ID/Info : Advanced Video Coding
Duration : 1h 43mn
Bit rate mode : Variable
Bit rate : 1 500 Kbps
Maximum bit rate : 8 743 Kbps
Width : 640 pixels
Height : 256 pixels
Display aspect ratio : 2.500
Frame rate mode : Constant
Frame rate : 25.000 fps
Color space : YUV
Chroma subsampling : 4:2:0
Bit depth : 8 bits
Scan type : Progressive
Bits/(Pixel*Frame) : 0.366
Stream size : 1.08 GiB (87%)
Writing library : x264

Audio
ID : 2
Format : AAC
Format/Info : Advanced Audio Codec
Format version : Version 4
Format profile : LC
Format settings, SBR : No
Codec ID : 40
Duration : 1h 43mn
Bit rate mode : Variable
Bit rate : 224 Kbps
Maximum bit rate : 265 Kbps
Channel(s) : 2 channels
Channel positions : Front: L R
Sampling rate : 44.1 KHz
Stream size : 165 MiB (13%)


Plot:
The Quileute and the Volturi close in on expecting parents Edward and Bella, whose unborn child poses different threats to the wolf pack and vampire coven

TRAILER:
[video=http://www.youtube.com/watch?v=sIpeBi6SG4A&feature=player_embedded]

image
image
image
image

Greets:

CRYS,IMAGINE,LKRG,FXG,3Li,iLLUMiNATi,FLAWL3SS,TA,iLLUSiON,ViSiON,DTRG SAFCuk009,LU,TheFalcon007,MYSTiC,PrisM,Noir,WBZ,LAP,Rx,Kingdom,SAFCuk009+Fabreezy,HDLiTE,TWiZTED,ETRG.ELEKTRI4KA,MAGNAT,CM8
And to all the other p2p grps past and present



Related Torrents

torrent name size files age seed leech

Sharing Widget


Download torrent
1.25 GB
seeders:40
leechers:8
The.Twilight.Saga.Breaking.Dawn.Part.1.2011.Cam.x264.Feel-Free

Trackers

tracker name Status checked seeders leechers downloads
http://10.rarbg.com/announce
private 09 May 2012 - - -
http://pow7.com/announce
outdated 09 May 2012 - - -
udp://tracker.1337x.org:80/announce
outdated 23 Nov 2011 - - -
udp://tracker.publicbt.com:80/announce
outdated 23 Nov 2011 - - -
udp://tracker.istole.it:80/announce
outdated 23 Nov 2011 - - -
http://tracker.istole.it/announce
outdated 23 Nov 2011 - - -
http://tracker.openbittorrent.com/announce
outdated 23 Nov 2011 - - -
udp://tracker.openbittorrent.com:80/announce
outdated 23 Nov 2011 - - -
http://tracker.publicbt.com/announce
deleted 11 Mar 2013 - - -
http://tracker.novalayer.org:6969/announce
pending 23 Nov 2011 4072 2989 14600
ĀµTorrent compatible trackers list

Locations

name
KickassTorrents
ExtraTorrent
ThePirateBay
Limetorrents
Torrent hash: 4492DEDFABE7B8309E2AD063D5E0FE88D902A684

All Comments

audio
6/10
video
6/10
please, leave only comments related to that torrent
or sign-in
0
shmee86607 • 01 December 2011, 08:46
torrent downloaded
Show comment
audio: 5video: 6
girlfriend didn't mind the quality
0
moc695 • 28 November 2011, 05:28
torrent downloaded
Show comment
thousands of seeds but blocked
0
hederrachelle4 • 27 November 2011, 17:17
torrent downloaded
Show comment
audio: 6video: 6
good for a cam, dark some, background noise some
0
anonymous • 26 November 2011, 18:05 Show comment
not bad
0
anonymous • 26 November 2011, 17:59 Show comment
audio: 6video: 8
0
anonymous • 26 November 2011, 17:59 Show comment
its not all that clear and there are a few crackling noises but I think this is a great copy of the film, thanks :-)
0
2112dawn294 • 25 November 2011, 20:03
torrent downloaded
Show comment
audio: 4video: 5
0
philbert1907 • 25 November 2011, 15:18
torrent downloaded
Show comment
audio: 6video: 6
thank you
Show More

User Opinions

chrisowenlove63376, Adwarb7667, Outlaw693348, Sherendil71465, malcmag875, Deathrazer563, riz64195, sammi1375, Little_Shy64, bobbarker67657 ... And 13 more
moc695, ayybear152, switchkirby115, madhatter632107, didiz2006104, kevinnivek32, redexum32, DDKDD11, ren23
Report a bug