The Twilight Saga, Breaking Dawn 1 DVDrip English Klam

seeders: 9
leechers: 1
Added on Feb 17, 2012 in Movies
Torrent verified. Downloaded 304 times.

The Twilight Saga, Breaking Dawn 1 DVDrip English Klam (Size: 1.55 GB)
  Cover
  The Twilight Saga, Breaking Dawn 1.avi 1.54 GB
  www.Film-Test.nl.jpg 29.5 KB
  New Dutch Site.txt 117 bytes
  Torrent downloaded from Demonoid.com.txt 47 bytes

Description

With: Kristen Stewart, Robert Pattinson and Taylor Lautner

Na de bruiloft gaan Bella en Edward op huwelijksreis naar Rio De Janeiro, waar Bella tot haar schrik ontdekt zwanger te zijn. De familie van Edward is in shock door de situatie, die de fragiele band tussen de vampieren en weerwolven nog meer spanning bezorgt. Niemand weet wat te verwachten van deze onwaarschijnlijke zwangerschap. Ondertussen blijft ook de dreiging van de Volturi bestaan.

The Quileutes close in on expecting parents Edward and Bella, whose unborn child poses a threat to the Wolf Pack and the towns people of Forks.

------------------------ Dutch Friends ------------------------
---------------------------------------------------------------
- Bezoek ook eens mijn vrienden op: http://www.Film-Test.nl --
----- voor mijn Nederlandse Sync. ondertitels ---- en meer ----
------- http://www.Film-Test.nl ---- voor Films en meer -------
---------------------------------------------------------------

General:

Complete name : The Twilight Saga\\The Twilight Saga, Breaking Dawn 1.avi
Format : AVI
Format/Info : Audio Video Interleave
File size : 1.54 GiB
Duration : 1h 57mn
Overall bit rate : 1 888 Kbps

Video:

Format : MPEG-4 Visual
Format profile : Simple@L3
Format settings, BVOP : No
Format settings, QPel : No
Format settings, GMC : No warppoints
Format settings, Matrix : Default (H.263)
Codec ID : XVID
Codec ID/Hint : XviD
Duration : 1h 57mn
Bit rate : 1 429 Kbps
Width : 720 pixels
Height : 304 pixels
Display aspect ratio : 2.35:1
Frame rate : 23.976 fps
Color space : YUV
Chroma subsampling : 4:2:0
Bit depth : 8 bits
Scan type : Progressive
Compression mode : Lossy
Bits/(Pixel*Frame) : 0.272
Stream size : 1.17 GiB (76%)
Writing library : XviD 1.1.2 (UTC 2006-11-01)

Audio:

Format : AC-3
Format/Info : Audio Coding 3
Mode extension : CM (complete main)
Codec ID : 2000
Duration : 1h 57mn
Bit rate mode : Constant
Bit rate : 448 Kbps
Channel(s) : 6 channels
Channel positions : Front: L C R, Side: L R, LFE
Sampling rate : 48.0 KHz
Bit depth : 16 bits
Compression mode : Lossy
Stream size : 375 MiB (24%)
Alignment : Aligned on interleaves
Interleave, duration : 32 ms (0.77 video frame)

Sharing Widget


Download torrent
1.55 GB
seeders:9
leechers:1
The Twilight Saga, Breaking Dawn 1 DVDrip English Klam

Trackers

tracker name Status checked seeders leechers downloads
udp://tracker.openbittorrent.com:80/announce
outdated 17 May 2014 - - -
http://tracker.torrentfrancais.com/announce
outdated 17 May 2014 - - -
udp://tracker.publicbt.com:80/announce
outdated 17 May 2014 - - -
udp://tracker.istole.it:80/announce
outdated 26 Jan 2013 - - -
udp://tracker.1337x.org:80/announce
outdated 26 Jan 2013 - - -
http://inferno.demonoid.me:3417/announce
outdated 26 Jan 2013 - - -
http://pow7.com/announce
outdated 26 Jan 2013 - - -
http://tracker.publicbits.com/announce
outdated 26 Jan 2013 - - -
udp://fr33domtracker.h33t.com:3310/announce
deleted 26 Jan 2013 - - -
http://php.hdcmct.com:2710/announce
error 26 Jan 2013 - - -
ĀµTorrent compatible trackers list

Locations

name
ThePirateBay
Limetorrents
Torrent hash: c3c36b2400423cb28f47b2c8b5d9d067b5300ef8

Top Comments

2
anonymous • 20 Nov 2012, 04:43
audio: 10video: 10

All Comments

audio
8/10
video
8/10
please, leave only comments related to that torrent
or sign-in
0
Dead-Crow38 • 19 March 2013, 10:09
torrent downloaded
Show comment
audio: 10video: 10
cool
0
AstralWarrior621 • 05 December 2012, 19:30
torrent downloaded
Show comment
Brilliant movie
Great movie
Fast download
Excellent
Thanks.
0
mmajpa59 • 22 November 2012, 06:04
torrent downloaded
Show comment
audio: 1video: 9
no sound when burned to a disc. sound only through the computer
2
anonymous • 20 November 2012, 04:43 Show comment
audio: 10video: 10
0
gmc1928 • 06 October 2012, 20:48
torrent downloaded
Show comment
audio: 9video: 9
great download
0
H2oDragon11 • 21 August 2012, 00:13
torrent downloaded
Show comment
audio: 1video: 1
got a copyright notice from mediacom about this movie two weeks after i downloaded it reporting agency summit entertainment,LLC
find a different source!!!
0
stitches1233085 • 13 July 2012, 22:08
torrent downloaded
Show comment
audio: 9video: 9
Thanks
0
anonymous • 11 July 2012, 13:56 Show comment
does not work
0
anonymous • 08 July 2012, 23:51 Show comment
Excellent quality, thank you
Show More

User Opinions

moorebounce2314, sassy20031859, honeybear19631220, malcmag874, Iwcia000725, gaffa77479, snark44349, o.c.emilian308, ciumego300, SAMCRO218 ... And 55 more
enoitna1446, matttman5051151, TwiztidNunu382, depy108283, trayevans161, Gabchu8111, H2oDragon11
Report a bug