The Tree of Life (2011) DVDRip XviD-MAXSPEED

seeders: 248
leechers: 34
Added on Sep 18, 2011 by piratepedia684.84K in Movies
Torrent verified. Downloaded 10 times.

The Tree of Life (2011) DVDRip XviD-MAXSPEED (Size: 1.68 GB)
  The Tree of Life (2011) DVDRip XviD-MAXSPEED www.torentz.3xforum.ro.avi 1.68 GB
  sample.avi 7.84 MB
  screencaps.jpeg 172.32 KB
  The Tree of Life (2011) DVDRip XviD-MAXSPEED.nfo 2.58 KB
  Torrent downloaded from Demonoid.me.txt 46 bytes
  Torrent downloaded from extratorrent.com.txt 40 bytes
  Torrent downloaded from Rarbg.com.txt 33 bytes
  torrent downloaded from H33T.com.txt 32 bytes

Description

http://www.torentz.3xforum.ro/post/2319/1/The_Tree_of_Life_2011_DVDRip_XviD-MAXSPEED/
.
image
.
Screens:
.
image
image
image
image
.
Alternative:
.
http://www.postimg.com/image/48000/photo-47300.jpg
http://www.postimg.com/image/48000/photo-47301.jpg
http://www.postimg.com/image/48000/photo-47302.jpg
http://www.postimg.com/image/48000/photo-47303.jpg
.
ScreenCaps:
.
image
.
The Tree of Life (2011) DVDRip XviD-MAXSPEED
Format : AVI
Format/Info : Audio Video Interleave
Format profile : OpenDML
File size : 1.68 GiB
Duration : 2h 18mn
Overall bit rate : 1 727 Kbps
Writing application : VirtualDubMod 1.5.10.2 (build 2542/release)
Writing library : VirtualDubMod build 2542/release
Original source form : MAX TORRENTZ
Copyright : SIGISMUNT
.
Video
ID : 0
Format : MPEG-4 Visual
Format profile : AdvancedSimple@L5
Format settings, BVOP : Yes
Format settings, QPel : No
Format settings, GMC : No warppoints
Format settings, Matrix : Custom
Codec ID : XVID
Codec ID/Hint : XviD
Duration : 2h 18mn
Bit rate : 1 274 Kbps
Width : 720 pixels
Height : 384 pixels
Display aspect ratio : 1.875
Frame rate : 23.976 fps
Resolution : 24 bits
Colorimetry : 4:2:0
Scan type : Progressive
Bits/(Pixel*Frame) : 0.192
Stream size : 1.24 GiB (74%)
Writing library : XviD 58
.
Audio
ID : 1
Format : AC-3
Format/Info : Audio Coding 3
Codec ID : 2000
Duration : 2h 18mn
Bit rate mode : Constant
Bit rate : 448 Kbps
Channel(s) : 2 channels
Channel positions : L R
Sampling rate : 48.0 KHz
Stream size : 445 MiB (26%)
Alignment : Aligned on interleaves
Interleave, duration : 64 ms (1.53 video frames)
Interleave, preload duration : 192 ms
.
Source: DVD (perfect a/v/sync quality,sample included)
This torrent is not seedbox supported,please seed it to the MAX
.
Note:If you have something to offer as early releases,seedboxes,links,accounts,etc
please contact us on piratepedia[@]msn/gmail.com or our website torentz 3xforum ro
.
How To Get Your Maxspeed (uTorrent)
.
Torrent Client - Preferences - Bandwidth - Number of connections - Set aprox. 500 for each 
Torrent Client - Preferences - BiTorrent - Protocol Encryption - Forced
Bandwidth Allocation - High (Set download/upload limit - Unlimited)
Stop Other Active Torrents - Start downloading and wait for connections.
Enjoy and Seed for at least 1:1 ratio. Don't forget to say thanks/leave reviews.
Before downloading you should check/google search sample "release name""sample".
Greets to all actual/future p2p/scene QUALITY groups and affiliate websites.
Don't trust IMDb robot or bad ratings,always watch some trailers first.
Ignore stupid comments/fake/mislabeled/no-DVDrips/CAM/TS/RAR uploads.
Please spread this release/torrent to your friends/forums/etc.
If you need translation subs visit some subtitles sites.
Report if you see online streaming or other spam links.
Recommended movie player VLC PLAYER.

Related Torrents

torrent name size files age seed leech

Sharing Widget


Download torrent
1.68 GB
seeders:248
leechers:34
The Tree of Life (2011) DVDRip XviD-MAXSPEED

Trackers

tracker name Status checked seeders leechers downloads
udp://tracker.openbittorrent.com:80/announce
outdated 24 Jun 2014 - - -
udp://tracker.publicbt.com:80/announce
outdated 24 Jun 2014 - - -
udp://tracker.istole.it:80/announce
outdated 24 Jun 2014 - - -
udp://tracker.1337x.org:80/announce
outdated 15 Sep 2013 - - -
http://exodus.desync.com:6969/announce
blocked 15 Sep 2013 - - -
udp://fr33domtracker.h33t.com:3310/announce
deleted 15 Sep 2013 - - -
µTorrent compatible trackers list

Locations

name
KickassTorrents
ThePirateBay
ExtraTorrent
Limetorrents
BTjunkie
Torrent hash: 9D3910AE888C32C7119AFD5346343B3EBD247026

Top Comments

24
Irfan1906 • 19 Sep 2011, 01:40
audio: 10video: 10
As always piratepedia is awesome and not fake torrents uploader
thanks for the nice rip
21
gwyne83 • 28 Sep 2011, 11:01
torrent downloaded
audio: 10video: 10
great quality! but I had a hard time keeping myself awake.... mad
5
anonymous • 06 Oct 2011, 02:59
audio: 8video: 9
Awesome Quality, Thanks for the upload - shame the film itself was absolutely C R A P though!!

All Comments

audio
9/10
video
9/10
please, leave only comments related to that torrent
or sign-in
0
oliviah1363 • 05 August 2014, 08:09
torrent downloaded
Show comment
audio: 10video: 10
omg such a boring movie, however good quality download
0
ready4amovie92 • 14 April 2014, 23:39
torrent downloaded
Show comment
audio: 10video: 10
Beautiful cinematography. Heartfelt movie.
0
abdu85266 • 03 December 2013, 13:12
torrent downloaded
Show comment
audio: 9video: 9
good quality, unbearably slow movie
1
The_Redman315 • 11 November 2013, 03:55
torrent downloaded
Show comment
great quality. Thanks.
-1
The_Redman315 • 11 November 2013, 03:53
torrent downloaded
Show comment
great quality. Thanks.
-1
The_Redman315 • 11 November 2013, 03:53
torrent downloaded
Show comment
great quality. Thanks.
0
dtierra858 • 22 October 2013, 20:14
torrent downloaded
Show comment
Excelente calidad. Saludos
0
TenthDoctor2787 • 15 October 2013, 19:43
torrent downloaded
Show comment
audio: 9video: 9
good dl
0
sweenytodd11063 • 18 August 2013, 17:03
torrent downloaded
Show comment
audio: 10video: 10
thank you!
Show More

User Opinions

q8djent5256, TeGiiGii4477, BuFu2137, Dankestbuds1350, markozlatni1300, godslinux975, litefoot924, nikozzz899, Alrhino816, mr.hushish118 ... And 1729 more
coke82302, runami1823, dan00771576, fletchersfanatic1163, koitusinteruptus767, klaudioloko629, traceynjan349, genius_bd277, mouzas7, stevepap5 ... And 156 more
Report a bug