The Three Musketeers 2011 CAM XviD - ILLUMINATI [NO RAR]

seeders: 1
leechers: 7
Added on Oct 11, 2011 by hail_alpha66.21K in Movies
Torrent verified. Downloaded 750 times.

The Three Musketeers 2011 CAM XviD - ILLUMINATI [NO RAR] (Size: 1.44 GB)
  3 Muskateers 2011 CAM XviD - ILLUMINATI.avi 1.42 GB
  HDSceneRG.txt 115 bytes
  The Three Musketeers 2011 CAM XviD - ILLUMINATI.nfo 3.19 KB
  Torrent downloaded from Suprnova.me.txt 42 bytes
  att-networks.com.txt 39 bytes
  sample.avi 20.36 MB
  Sceneunderground.org.txt 77 bytes

Description

image


Title: The Three Musketeers 2011 CAM XviD - ILLUMINATI
Format: Xvid 
Subtitles: No 
Sample Included: Yes 


source:
Audio : Many Thanx 
Video: FLOPPYDiSK source files - Many Thanx 

imDb: http://www.imdb.com/title/tt1509767/

Plot: 
The hot-headed young D'Artagnan along with three former 
legendary but now down on their luck Musketeers must unite 
and defeat a beautiful double agent and her villainous 
employer from seizing the French throne 
and engulfing Europe in war. 

Info:

Video
ID : 0
Format : MPEG-4 Visual
Format profile : Advanced Simple@L5
Format settings, BVOP : 2
Format settings, QPel : No
Format settings, GMC : No warppoints
Format settings, Matrix : Default (H.263)
Muxing mode : Packed bitstream
Codec ID : XVID
Codec ID/Hint : XviD
Duration : 1h 45mn
Bit rate : 1 731 Kbps
Width : 720 pixels
Height : 304 pixels
Display aspect ratio : 2.35:1
Frame rate : 25.000 fps
Color space : YUV
Chroma subsampling : 4:2:0
Bit depth : 8 bits
Scan type : Progressive
Compression mode : Lossy
Bits/(Pixel*Frame) : 0.316
Stream size : 1.27 GiB (90%)
Writing library : XviD 64

Audio
ID : 1
Format : MPEG Audio
Format version : Version 1
Format profile : Layer 3
Mode : Joint stereo
Mode extension : MS Stereo
Codec ID : 55
Codec ID/Hint : MP3
Duration : 1h 45mn
Bit rate mode : Constant
Bit rate : 192 Kbps
Channel(s) : 2 channels
Sampling rate : 48.0 KHz
Compression mode : Lossy
Stream size : 144 MiB (10%)
Alignment : Split accross interleaves
Interleave, duration : 40 ms (1.00 video frame)

Release Notes:

Here we have a very nice release for all The Three Musketeers 2011 CAM XviD - ILLUMINATI 
Video is nice overall gotter say thanks to FLOPPYDiSK tho for the sourcefiles for us to use on
this release.
Onto audio which honestly must say sounds very nice which was given to use on behalf of 
so once again must say thanks for the audio as with out the audio the release wouldnt be what it is.
There is a sample included check it out before you download and if u dont like the sample.....
go to the cinema and watch it or wait for bluray 

Screens:
image
image
image
image

Related Torrents

torrent name size files age seed leech

Sharing Widget


Download torrent
1.44 GB
seeders:1
leechers:7
The Three Musketeers 2011 CAM XviD - ILLUMINATI [NO RAR]

Trackers

tracker name Status checked seeders leechers downloads
udp://tracker.1337x.org:80/announce
outdated 11 Oct 2011 - - -
udp://tracker.publicbt.com:80/announce
outdated 11 Oct 2011 - - -
http://open.nyaatorrents.info:6544/announce
outdated 11 Oct 2011 - - -
udp://tracker.openbittorrent.com:80/announce
outdated 11 Oct 2011 - - -
http://tracker.openbittorrent.com/announce
outdated 11 Oct 2011 - - -
http://exodus.desync.com:6969/announce
blocked 18 Aug 2012 - - -
http://tracker.publicbt.com/announce
deleted 11 Oct 2011 - - -
http://9.rarbg.com:2710/announce
private 11 Oct 2011 - - -
http://opentracker.umunu.com/announce
error 11 Oct 2011 - - -
ĀµTorrent compatible trackers list

Locations

name
KickassTorrents
ThePirateBay
Limetorrents
ExtraTorrent
Torrent hash: D883F805F71B21B0AC648109BFE1B069EBC1E00C

All Comments

audio
5/10
video
6/10
please, leave only comments related to that torrent
or sign-in
0
delboy08151 • 17 October 2011, 11:54
torrent downloaded
Show comment
audio: 5video: 6

User Opinions

Report a bug