The Switch DVDRip XviD-VAMPS

seeders: 2
leechers: 0
Added on Dec 7, 2010 in Movies
Torrent verified. Downloaded 0 times.

Summary:
Seven years after the fact, a man comes to the realization that he was the sperm donor for his best friend's boy.
Submitted by thePiratePimp48.34K
report summary
The Switch DVDRip XviD-VAMPS (Size: 701.2 MB)
  the.switch.nfo 1.86 KB
  the.switch.rar 14.31 MB
  the.switch.rar 14.31 MB
  the.switch.rar 14.31 MB
  the.switch.rar 14.31 MB
  the.switch.rar 14.31 MB
  the.switch.rar 14.31 MB
  the.switch.rar 14.31 MB
  the.switch.rar 14.31 MB
  the.switch.rar 14.31 MB
  the.switch.rar 14.31 MB
  the.switch.rar 14.31 MB
  the.switch.rar 14.31 MB
  the.switch.rar 14.31 MB
  the.switch.rar 14.31 MB
  the.switch.rar 14.31 MB
  the.switch.rar 14.31 MB
  the.switch.rar 14.31 MB
  the.switch.rar 14.31 MB
  the.switch.rar 14.31 MB
  the.switch.rar 14.31 MB
  the.switch.rar 14.31 MB
  the.switch.rar 14.31 MB
  the.switch.rar 14.31 MB
  the.switch.rar 14.31 MB
  the.switch.rar 14.31 MB
  the.switch.rar 14.31 MB
  the.switch.rar 14.31 MB
  the.switch.rar 14.31 MB
  the.switch.rar 14.31 MB
  And 22 files more

Description

,
Hottest scene tracker on the net !!! http://www.scenetime.com

Please seed back after your download is completed

Credit goes to all seeders and http://www.scenetime.com




...................................NFO:.................................................VAMPS:

The Switch (2010)
http://www.imdb.com/title/tt0889573/

Duration : 1h 41mn

Video
ID : 0
Format : MPEG-4 Visual
Format profile : Advanced Simple@L5
Format settings, BVOP : Yes
Format settings, QPel : No
Format settings, GMC : No warppoints
Format settings, Matrix : Default (H.263)
Codec ID : XVID
Codec ID/Hint : XviD
Duration : 1h 41mn
Bit rate : 826 Kbps
Width : 640 pixels
Height : 272 pixels
Display aspect ratio : 2.35:1
Frame rate : 23.976 fps
Color space : YUV
Chroma subsampling : 4:2:0
Bit depth : 8 bits
Scan type : Progressive
Bits/(Pixel*Frame) : 0.198
Stream size : 599 MiB (85%)
Writing library : XviD 1.2.1

Audio
ID : 1
Format : MPEG Audio
Format version : Version 1
Format profile : Layer 3
Mode : Joint stereo
Mode extension : MS Stereo
Codec ID : 55
Codec ID/Hint : MP3
Duration : 1h 41mn
Bit rate mode : Variable
Bit rate : 128 Kbps
Channel(s) : 2 channels
Sampling rate : 48.0 KHz
Stream size : 93.0 MiB (13%)
Alignment : Aligned on interleaves
Interleave, duration : 24 ms (0.58 video frame)
Interleave, preload duration : 143 ms
Writing library : LAME3.90.

Related Torrents

torrent name size files age seed leech

Sharing Widget


Download torrent
701.2 MB
seeders:2
leechers:0
The Switch DVDRip XviD-VAMPS

Trackers

tracker name Status checked seeders leechers downloads
udp://tracker.publicbt.com:80/announce
outdated 07 Dec 2010 - - -
http://tracker.openbittorrent.com/announce
outdated 07 Dec 2010 - - -
udp://tracker.openbittorrent.com:80/announce
outdated 07 Dec 2010 - - -
http://tracker.publicbt.com/announce
deleted 17 Aug 2011 - - -
µTorrent compatible trackers list

Locations

name
ThePirateBay
Limetorrents
Limetorrents
Torrent hash: 85f77535d4f71f70bbc5f1d47e30e6792950c083

All Comments

audio
0/10
video
0/10
please, leave only comments related to that torrent
or sign-in
Report a bug