The Swan Princess II The Secret Of The Castle 1997 DVDRip XviD-E

seeders: 10
leechers: 2
Added on Jan 17, 2011 in Movies
Torrent verified. Downloaded 10 times.

Available in versions: DVDRip
The Swan Princess II The Secret Of The Castle 1997 DVDRip XviD-E (Size: 708.32 MB)
  Sample
  Subs
  exvid-the.swan.princess.2.avi 700.3 MB
  exvid-the.swan.princess.2.nfo 7.43 KB
  OPEN and READ this before playing the Movie.txt 502 bytes
  www.torrentday.com.txt 502 bytes

Description

.

http://www.torrentday.com/ : The Hottest Private Tracker On The Net!!!

http://www.torrentday.com : Once & For all ;)


www . TorrentDay . Com

(((((((((((((= Enjoy No RAR releases =))))))))))))))))))))


...................................NFO:....................................

.









EXVID



Filled the Archives



With:




E240

SP (C) 2009






The.Swan.Princess.II.The.Secret.Of.The.Castle.1997.DVDRip.XviD-EXViD




EXViD aims to iNTERNAL those releases which have been lost in the archives.
EXViD aims to PRE non-internal releases which have poor sources and are likely skipped by others.

http://www.imdb.com/title/tt0120254/
Subtitles: PT
Date: 2010.12

Director:
Richard Rich

Genres:
Animation | Family | Fantasy | Romance

Plot:
The first wedding anniversary of Princess Odette and Prince Derek is distracted by field fires
set by Knuckles. His master Clavius, wants to conquer the world, and he needs to capture a giant
orb to do that. Clavius kidnaps Queen Uberta and Odette with Derek have to save her.

Cast:
Credited cast:
Michelle Nicastro ... Odette (voice)
Douglas Sills ... Derek (voice)
Jake Williamson ... Clavius (voice)
Christy Landers ... Uberta (voice)
Donald Sage Mackay ... Jean-Bob (voice)
Doug Stone ... Speed (voice)
Steve Vinovich ... Puffin (voice)
Joseph Medrano ... Lord Rogers (voice)
James Arrington ... Chamberlain (voice)
Joey Camen ... Knuckles (voice)
Owen Miller ... Bromley (voice)
Rosie Mann ... Bridget (voice)

Stats:
Format : AVI
Format/Info : Audio Video Interleave
File size : 700 MiB
Duration : 1h 8mn
Overall bit rate : 1 428 Kbps
Writing application : VirtualDubMod 1.5.10.2 (build 2540/release)
Writing library : VirtualDubMod build 2540/release

Video
ID : 0
Format : MPEG-4 Visual
Format profile : Advanced Simple@L5
Format settings, BVOP : Yes
Format settings, QPel : No
Format settings, GMC : No warppoints
Format settings, Matrix : Default (H.263)
Muxing mode : Packed bitstream
Codec ID : XVID
Codec ID/Hint : XviD
Duration : 1h 8mn
Bit rate : 1 227 Kbps
Width : 640 pixels
Height : 352 pixels
Display aspect ratio : 16:9
Frame rate : 25.000 fps
Color space : YUV
Chroma subsampling : 4:2:0
Bit depth : 8 bits
Scan type : Progressive
Bits/(Pixel*Frame) : 0.218
Stream size : 601 MiB (86%)
Writing library : XviD 1.2.1 (UTC 2008-12-04)

Audio
ID : 1
Format : AC-3
Format/Info : Audio Coding 3
Format profile : Dolby Digital
Mode extension : CM (complete main)
Codec ID : 2000
Duration : 1h 8mn
Bit rate mode : Constant
Bit rate : 192 Kbps
Channel(s) : 2 channels
Channel positions : Front: L R
Sampling rate : 48.0 KHz
Bit depth : 16 bits
Stream size : 94.1 MiB (13%)
Alignment : Split accross interleaves
Interleave, duration : 40 ms (1.00 video frame)
Interleave, preload duration : 500 ms




Release notes:
Enjoy!

Looking for:
75TB+ Archives
DUTCH/FLEMiSH Archives

Greets: CRBS EPiSODE FiCO FLS iLS KLASSiGER LiPSYNC MADE NODLABS RUNNER TNAN


ASCII DONE BY XX^NFO 2oo9

Related Torrents

torrent name size files age seed leech

Sharing Widget


Download torrent
708.32 MB
seeders:10
leechers:2
The Swan Princess II The Secret Of The Castle 1997 DVDRip XviD-E

Trackers

tracker name Status checked seeders leechers downloads
udp://tracker.openbittorrent.com:80/announce
outdated 05 Apr 2014 - - -
udp://tracker.publicbt.com:80/announce
outdated 05 Apr 2014 - - -
http://tracker.openbittorrent.com/announce
outdated 22 Mar 2013 - - -
http://tracker.publicbt.com/announce
deleted 22 Mar 2013 - - -
ĀµTorrent compatible trackers list

Locations

name
ThePirateBay
Limetorrents
Limetorrents
Torrent hash: dfac30106fe925c8c5ffc3a1512878f5dded14c0

All Comments

audio
9/10
video
9/10
please, leave only comments related to that torrent
or sign-in
0
Stevefdm1089 • 19 December 2013, 01:34
torrent downloaded
Show comment
audio: 8video: 8
Really good for age, thanks.
0
kayelle34 • 03 January 2013, 03:46
torrent downloaded
Show comment
audio: 9video: 9
Decent copy considering the year it was released.
0
tim2836622 • 13 May 2012, 15:34
torrent downloaded
Show comment
Very Good Thanks alot
0
anonymous • 08 May 2012, 20:51 Show comment
audio: 10video: 10
Very good copy!

User Opinions

Lil4292280, chenyy1525, Sherendil71467, Chrissaint1367, azzazel756, ramsenashak602, Dittmer311, w007ds269, yetter54, The_Immortal_SIN29 ... And 28 more
emilyman15
Report a bug