The Stepford Wives 1975 DVDRip GoGo

seeders: 7
leechers: 4
Added on Jun 16, 2010 by fasamoo16049 in Movies
Torrent verified. Downloaded 10 times.

Available in versions: DVDRip
The Stepford Wives 1975 DVDRip GoGo (Size: 800.09 MB)
  gogo.txt 17.19 KB
  The Stepford Wives 1975 DVDRip GoGo.avi 799.89 MB
  The Stepford Wives 1975 DVDRip GoGo_idx.jpg 184.95 KB
  Torrent downloaded from AhaShare.com.txt 59 bytes
  Torrent downloaded from Demonoid.com.txt 47 bytes
  Torrent downloaded from extratorrent.com.txt 71 bytes
  Torrent downloaded from thepiratebay.org.txt 48 bytes

Description

image



image



image



Joanna and Walter are the two newest residents in Stepford. Joanna, although a "housewife" is intelligent and creative - taking an interest in photography: she wants to be "remembered". Like many of the men in Stepford, Walter is an obviously inadequate husband. Conflict occurs when Joanna complains that Walter is making all of the decisions for them. Walter joins the mysterious Stepford "Men's Club", which takes place in an old manor house, which is heavily guarded. Joanna is disturbed that many of the Stepford wives spend their lives in domestic servitude, are unintelligent and wear flowery print dresses. Her friend Bobbie thinks that it might be due to something in the water. At a consciousness-raising group that Joanna starts, the wives begin discussing spray starch and cleaning products. The awful truth is that the men of Stepford are replacing their wives with compliant domestic sex robots. Gradually, Joanna begins to realise that all of her friends have been replaced, and that she is in great danger. Her psychiatrist advices that she takes the kids and gets "the hell out of Stepford", but the men are hiding Joanna's children. Can she find them, or will she be murdered and replaced by RoboJoanna?



image





image

image

image

image

image

image



image



http://www.youtube.com/watch?v=4zUWOeNfa6Y



image



General

Complete name                    : The Stepford Wives 1975 DVDRip GoGo\The Stepford Wives 1975 DVDRip GoGo.avi

IMDB Link                        :http://www.imdb.com/title/tt0073747/

Format                           : AVI

Format/Info                      : Audio Video Interleave

File size                        : 800 MiB

Duration                         : 1h 56mn

Overall bit rate                 : 956 Kbps

Writing application              : VirtualDubMod 1.5.4.1 (build 2178/release)

Writing library                  : VirtualDubMod build 2178/release



Video

ID                               : 0

Format                           : MPEG-4 Visual

Format profile                   : Advanced Simple@L5

Format settings, BVOP            : Yes

Format settings, QPel            : No

Format settings, GMC             : No warppoints

Format settings, Matrix          : Custom

Codec ID                         : XVID

Codec ID/Hint                    : XviD

Duration                         : 1h 56mn

Bit rate                         : 840 Kbps

Width                            : 496 pixels

Height                           : 256 pixels

Display aspect ratio             : 1.938

Frame rate                       : 23.976 fps

Color space                      : YUV

Chroma subsampling               : 4:2:0

Bit depth                        : 8 bits

Scan type                        : Progressive

Bits/(Pixel*Frame)               : 0.276

Stream size                      : 703 MiB (88%)

Writing library                  : XviD 1.2.1 (UTC 2008-12-04)



Audio

ID                               : 1

Format                           : MPEG Audio

Format version                   : Version 1

Format profile                   : Layer 3

Mode                             : Joint stereo

Mode extension                   : MS Stereo

Codec ID                         : 55

Codec ID/Hint                    : MP3

Duration                         : 1h 56mn

Bit rate mode                    : Variable

Bit rate                         : 103 Kbps

Nominal bit rate                 : 128 Kbps

Channel(s)                       : 2 channels

Sampling rate                    : 48.0 KHz

Stream size                      : 86.4 MiB (11%)

Alignment                        : Aligned on interleaves

Interleave, duration             : 24 ms (0.58 video frame)

Interleave, preload duration     : 178 ms

Writing library                  : LAME3.98r

Encoding settings                : -m j -V 4 -q 2 -lowpass 17 --abr 128

Language                         : English

Subtitles                        : None

Genre                            : Fantasy | Mystery | Thriller



image

Related Torrents

torrent name size files age seed leech

Sharing Widget


Download torrent
800.09 MB
seeders:7
leechers:4
The Stepford Wives 1975 DVDRip GoGo

Trackers

tracker name Status checked seeders leechers downloads
udp://tracker.publicbt.com:80/announce
active 20 Jul 2014 7 2 10
udp://tracker.openbittorrent.com:80/announce
active 20 Jul 2014 6 4 10
http://exodus.1337x.org/announce
outdated 17 Aug 2013 - - -
http://tracker.openbittorrent.com/announce
outdated 17 Aug 2013 - - -
http://genesis.1337x.org:1337/announce
outdated 17 Aug 2013 - - -
http://tracker.publicbt.com/announce
deleted 17 Aug 2013 - - -
µTorrent compatible trackers list

Locations

name
KickassTorrents
ThePirateBay
1337x
Fenopy
ExtraTorrent
Torrent hash: 381cebd9809ce3e825842b6e5b752931e0efb584

All Comments

audio
8/10
video
8/10
please, leave only comments related to that torrent
or sign-in
0
GreatMovieBug524 • 14 July 2014, 13:10
torrent downloaded
Show comment
audio: 10video: 10
thanks for this nice print
0
marcelventer847 • 30 March 2014, 14:48
torrent downloaded
Show comment
Thanks!
0
killinglulu2216 • 02 June 2013, 16:12
torrent downloaded
Show comment
audio: 6video: 7
Average quality but still a good occasion to watch this interesting movie. Thanks!
0
utterjoy4711 • 11 July 2012, 11:31
torrent downloaded
Show comment
audio: 9video: 9
good rip. a9/v9.
0
papagator18 • 09 September 2011, 00:45
torrent downloaded
Show comment
audio: 8video: 8
Thanks Uploader
0
jaydee42143 • 07 May 2011, 18:50
torrent downloaded
Show comment
good movie to watch with your girlfriend good quality good rip
0
darkwild29 • 21 February 2011, 10:21
torrent downloaded
Show comment
audio: 8video: 8
i was hoping for the newer version i didn't read too well... but it was a good upload nonetheless
-1
Jocomoso60 • 02 November 2010, 09:19
torrent downloaded
Show comment
gr8 film - thanks for the upload!
0
chichi22249 • 26 August 2010, 01:03
torrent downloaded
Show comment
audio: 10video: 10

User Opinions

Report a bug