The Rundown 2003 DVDRip Xvid BigPerm LKRG

seeders: 5
leechers: 0
Added on Jan 25, 2012 in Movies
Torrent verified. Downloaded 10 times.

Available in versions: 1080p720pBlu-RayBDRipHDRiPDVDRip
The Rundown 2003 DVDRip Xvid BigPerm LKRG (Size: 947.35 MB)
  The_Rundown_BigPerm-LKRG.avi 947.35 MB
  LKRG.nfo 9.1 KB

Description

PLOT

A tough aspiring chef is hired to bring home a mobster's son from the Amazon but becomes
involved in the fight against an oppressive town operator and the search for a legendary treasure.

Encoded By .......: BigPerm
Runtime ..........: 1h 42mn
File Size ........: 947 MB
Resolution .......: 720 x 304
http://www.imdb.com/title/tt0327850/
Genre ............: Action,Adventure,Comedy
Language .........: English
Subtitles ........: None
Video
ID : 0
Format : MPEG-4 Visual
Format profile : Advanced Simple@L5
Format settings, BVOP : Yes
Format settings, QPel : No
Format settings, GMC : No warppoints
Format settings, Matrix : Default (H.263)
Muxing mode : Packed bitstream
Codec ID : XVID
Codec ID/Hint : XviD
Duration : 1h 42mn
Bit rate : 832 Kbps
Width : 720 pixels
Height : 304 pixels
Display aspect ratio : 2.35:1
Frame rate : 23.976 fps
Color space : YUV
Chroma subsampling : 4:2:0
Bit depth : 8 bits
Scan type : Progressive
Compression mode : Lossy
Bits/(Pixel*Frame) : 0.159
Stream size : 611 MiB (65%)
Writing library : XviD 64
Audio
ID : 1
Format : AC-3
Format/Info : Audio Coding 3
Mode extension : CM (complete main)
Codec ID : 2000
Duration : 1h 42mn
Bit rate mode : Constant
Bit rate : 448 Kbps
Channel(s) : 6 channels
Channel positions : Front: L C R, Side: L R, LFE
Sampling rate : 48.0 KHz
Bit depth : 16 bits
Compression mode : Lossy
Stream size : 329 MiB (35%)
Alignment : Split accross interleaves
Interleave, duration : 42 ms (1.00 video frame)
Interleave, preload duration : 500 ms

http://www.shotpix.com/images/08835026052193269332.png
http://www.shotpix.com/images/66765900517472928122.png
http://www.shotpix.com/images/36825240749247796443.png
http://www.shotpix.com/images/27435344036168982177.png
http://www.shotpix.com/images/20521429317272394255.png

Sharing Widget


Download torrent
947.35 MB
seeders:5
leechers:0
The Rundown 2003 DVDRip Xvid BigPerm LKRG

Trackers

tracker name Status checked seeders leechers downloads
udp://tracker.openbittorrent.com:80/announce
outdated 26 May 2014 - - -
http://tracker.ex.ua/announce
outdated 26 May 2014 - - -
udp://tracker.publicbt.com:80/announce
outdated 26 May 2014 - - -
http://tracker.openbittorrent.com/announce
outdated 10 Jul 2013 - - -
http://pow7.com/announce
outdated 10 Jul 2013 - - -
http://t1.pow7.com/announce
outdated 10 Jul 2013 - - -
http://10.rarbg.com/announce
private 10 Jul 2013 - - -
http://secure.pow7.com/announce
outdated 10 Jul 2013 - - -
http://exodus.desync.com:6969/announce
blocked 10 Jul 2013 - - -
http://tracker.publicbt.com/announce
deleted 10 Jul 2013 - - -
ĀµTorrent compatible trackers list

Locations

name
ThePirateBay
ExtraTorrent
Torrent hash: 71418a375fddc88a9728e455fabb2c15fe90f3b3

All Comments

audio
6/10
video
6/10
please, leave only comments related to that torrent
or sign-in
0
jomez105 • 24 October 2013, 20:41
torrent downloaded
Show comment
plz seed
its too slow
0
CanadianStock623 • 18 July 2012, 04:43
torrent downloaded
Show comment
Great
0
ramses_ryu627 • 23 March 2012, 19:56
torrent downloaded
Show comment
audio: 10video: 10
good movie but the good parts are cut out!
-1
anonymous • 18 February 2012, 23:20 Show comment
The Roc is in this movie, not the Terminator!
0
Max_Enforcer150 • 16 February 2012, 18:29
torrent downloaded
Show comment
audio: 8video: 9
Thanks for the awesome movie..
-1
vash_olm175 • 13 February 2012, 02:09
torrent downloaded
Show comment
audio: 1video: 1

User Opinions

gambit44939, private376201448, Dr.Sn00tch1067, GeorgeCR7964, DaveS66658, spawdet641, puika890616, adrian78463, dragonboy69361, kenrick_nembhard44 ... And 17 more
tasha87851, ramses_ryu627, vash_olm175
Report a bug