The Relief of Belsen-AC3-DVDRip[Eng]2007

seeders: 3
leechers: 0
Added on Sep 8, 2009 in Movies
Downloaded 18 times.

Available in versions: DVDRip
The Relief of Belsen-AC3-DVDRip[Eng]2007 (Size: 1.36 GB)
  The Relief of Belsen-AC3-DVDRip[Eng]2007.avi 1.36 GB
  The Relief of Belsen-AC3-DVDRip[Eng]2007.txt 2.92 KB
  The Relief of Belsen.jpg 348.85 KB
  Torrent downloaded from Demonoid.com.txt 47 bytes

Description



http://www.imdb.com/title/tt0950502/
/>


User Rating:7.2/10 - 51 votes



Drama



Director:Justin Hardy



Cast:Katrine Bach/Simon Day/Oliver Ford Davies/Iain Glen, and others.



Plot:

In early April 1945 a small British ambulance unit was diverted from frontline battle in northern Germany, to handle an unfolding medical crisis behind

enemy lines. A local prison camp had suffered an outbreak of typhus. That prison camp was Bergen-Belsen. The British had no idea of the true scale of

this humanitarian catastrophe nor of what it would come to represent.Forty thousand prisoners from across Europe had been herded into a concentration

camp of unspeakable squalor; deprived of food, clothing and medical supplies for nearly a month; deprived of humanity for the duration of the war. Over

the course of the next four weeks, as the war raged, an international medical team battled against the odds to save their lives...



Cover included.



Info:



General

Complete name : The Relief of Belsen-AC3-DVDRip[Eng]2007.avi

Format : AVI

Format/Info : Audio Video Interleave

File size : 1.36 GiB

Duration : 1h 39mn

Overall bit rate : 1 953 Kbps

Writing application : VirtualDubMod 1.5.4.1 (build 2178/release)

Writing library : VirtualDubMod build 2178/release



Video

Format : MPEG-4 Visual

Format profile : Simple@L3

Format settings, BVOP : No

Format settings, QPel : No

Format settings, GMC : No warppoints

Format settings, Matrix : Default

Codec ID : XVID

Codec ID/Hint : XviD

Duration : 1h 39mn

Bit rate : 1 687 Kbps

Width : 640 pixels

Height : 368 pixels

Display aspect ratio : 16/9

Frame rate : 25.000 fps

Resolution : 24 bits

Colorimetry : 4:2:0

Scan type : Progressive

Bits/(Pixel*Frame) : 0.287

Stream size : 1.18 GiB (86%)

Writing library : XviD 1.1.2 (UTC 2006-11-01)



Audio

Format : AC-3

Format/Info : Audio Coding 3

Codec ID : 2000

Duration : 1h 39mn

Bit rate mode : Constant

Bit rate : 256 Kbps

Channel(s) : 2 channels

Channel positions : L R

Sampling rate : 48.0 KHz

Stream size : 183 MiB (13%)

Alignment : Split accross interleaves

Interleave, duration : 40 ms (1.00 video frame)

Interleave, preload duration : 500 ms



Enjoy...

Sharing Widget


Download torrent
1.36 GB
seeders:3
leechers:0
The Relief of Belsen-AC3-DVDRip[Eng]2007

Trackers

tracker name Status checked seeders leechers downloads
http://tracker.bittorrent.am/announce
active 12 Aug 2014 0 0 3
udp://tracker.openbittorrent.com:80/announce
active 12 Aug 2014 3 0 10
udp://inferno.demonoid.com:3389/announce
active 12 Aug 2014 1 0 18
udp://tracker.publicbt.com:80/announce
active 12 Aug 2014 3 0 10
udp://tracker.torrentbox.com:2710/announce
outdated 13 Jul 2013 - - -
http://www.genesis-sp.org:2710/announce
outdated 13 Jul 2013 - - -
http://tracker.openbittorrent.com/announce
outdated 13 Jul 2013 - - -
http://10.rarbg.com/announce
private 13 Jul 2013 - - -
http://tracker.ilibr.org:6969/announce
blocked 02 Aug 2011 - - -
http://tracker.publicbt.com/announce
deleted 13 Jul 2013 - - -
http://tracker.torrentbox.com:2710/announce
error 25 Sep 2010 - - -
http://tracker4.finalgear.com/announce
error 11 May 2010 - - -
http://inferno.demonoid.com:3389/announce
error 04 Apr 2010 - - -
http://9.rarbg.com:2710/announce
private 08 Sep 2009 - - -
http://open.seed-it.org:6969/announce
error 08 Sep 2009 - - -
µTorrent compatible trackers list

Locations

name
Mininova
SumoTorrent
Torrentzap
Torrent hash: d7667b1c7363f44a0d4f784eb1b4cabf6c1a1025

All Comments

audio
8/10
video
8/10
please, leave only comments related to that torrent
or sign-in
0
TheBlackFlags136 • 01 June 2014, 09:05
torrent downloaded
Show comment
audio: 8video: 8
awesome

User Opinions

Report a bug