The Muppets 2011 DVDSCR XViD -INSPiRAL

seeders: 10
leechers: 1
Added on Feb 18, 2012 by legend64.36K in Movies
Torrent verified. Downloaded 127 times.

The Muppets 2011 DVDSCR XViD -INSPiRAL (Size: 1.44 GB)
  The Muppets 2011 DVDSCR XViD - INSPiRAL.avi 1.44 GB
  The Muppets 2011 DVDSCR XViD - INSPiRAL.nfo 2.74 KB
  Torrent downloaded from extratorrent.com.txt 353 bytes

Description







image
TITLE:

The Muppets 2011 DVDSCR XViD - INSPiRAL

IMDB:

http://www.imdb.com/title/tt1204342/


SOURCES:

VIDEO - Deadpool THANKS
AUDIO - Deadpool THANKS
SUBS - None Add

STATS:

Video
ID : 0
Format : MPEG-4 Visual
Format profile : Advanced Simple@L5
Format settings, BVOP : 2
Format settings, QPel : No
Format settings, GMC : No warppoints
Format settings, Matrix : Default (MPEG)
Muxing mode : Packed bitstream
Codec ID : XVID
Codec ID/Hint : XviD
Duration : 1h 42mn
Bit rate : 1 808 Kbps
Width : 720 pixels
Height : 384 pixels
Display aspect ratio : 1.875
Frame rate : 23.976 fps
Color space : YUV
Chroma subsampling : 4:2:0
Bit depth : 8 bits
Scan type : Progressive
Compression mode : Lossy
Bits/(Pixel*Frame) : 0.273
Stream size : 1.30 GiB (90%)
Writing library : XviD 64

Audio
ID : 1
Format : MPEG Audio
Format version : Version 1
Format profile : Layer 3
Codec ID : 55
Codec ID/Hint : MP3
Duration : 1h 42mn
Bit rate mode : Constant
Bit rate : 192 Kbps
Channel(s) : 2 channels
Sampling rate : 48.0 KHz
Compression mode : Lossy
Stream size : 141 MiB (10%)
Alignment : Split accross interleaves
Interleave, duration : 42 ms (1.00 video frame)
Interleave, preload duration : 500 ms
Writing library : LAME3.98.4




NOTES:

Sources:
Some nice sweet ass vobs .....audio was pcm and the video looked bang on,fine tuning needed but nothing more.

Workdone:
Just a simple rip with some minor tweaks ...chorma,contrast,fix ivtc and thats its really folks.
Encoded the pcm audio to mp3 and remuxed back to our rip...

Overall v9 a 9 m7 ....muppets,rollin back the yrs lol.


SCREENS:

image
image
image
image
image

Related Torrents

torrent name size files age seed leech

Sharing Widget


Download torrent
1.44 GB
seeders:10
leechers:1
The Muppets 2011 DVDSCR XViD -INSPiRAL

Trackers

tracker name Status checked seeders leechers downloads
http://tracker.ex.ua/announce
outdated 26 Apr 2014 - - -
udp://tracker.publicbt.com:80/announce
outdated 26 Apr 2014 - - -
udp://tracker.openbittorrent.com:80/announce
outdated 26 Apr 2014 - - -
http://tracker.torrentbay.to:6969/announce
outdated 02 Dec 2012 - - -
http://10.rarbg.com/announce
private 04 Jun 2012 - - -
http://tracker.pow7.com/announce
outdated 04 Jun 2012 - - -
http://tracker.openbittorrent.com/announce
outdated 04 Jun 2012 - - -
udp://tracker.1337x.org:80/announce
outdated 04 Jun 2012 - - -
http://ipv4.tracker.harry.lu/announce
outdated 04 Jun 2012 - - -
http://exodus.desync.com:6969/announce
blocked 27 Aug 2012 - - -
http://fr33dom.h33t.com:3310/announce
deleted 20 May 2013 - - -
http://tracker.publicbt.com/announce
deleted 11 Mar 2013 - - -
udp://tracker.novalayer.org:6969/announce
pending 04 Jun 2012 0 0 0
ĀµTorrent compatible trackers list

Locations

name
KickassTorrents
ThePirateBay
ExtraTorrent
Torrent hash: 0AD9003C569968DA1A1FBAB53FD4297ED6E11D1B

All Comments

audio
8/10
video
9/10
please, leave only comments related to that torrent
or sign-in
0
Logan187718.29K • 12 May 2013, 04:56 Show comment
thank you
0
Logan187718.29K • 12 May 2013, 04:55 Show comment
audio: 7video: 7
thank you
0
dualz1858 • 20 September 2012, 08:22
torrent downloaded
Show comment
audio: 9video: 9
thanks for the upload fast to get and great quality
0
anonymous • 15 July 2012, 20:10 Show comment
PLEASE, some1 upload 'Devil Went To Jamaica' muppets thanks
0
joopkl671357 • 11 July 2012, 13:17
torrent downloaded
Show comment
audio: 9video: 9
bedankt
0
Tuklu9839 • 03 June 2012, 07:18
torrent downloaded
Show comment
audio: 9video: 9
0
mattpenver12 • 13 May 2012, 10:25
torrent downloaded
Show comment
audio: 8video: 10
Good speed downloading , great video awesome!
0
Chilliman1975958 • 02 May 2012, 10:08
torrent downloaded
Show comment
audio: 6video: 9
The sound was really quiet but video was pretty much perfect.
0
ostamb68 • 12 April 2012, 16:10
torrent downloaded
Show comment
audio: 9video: 9
Great quality & ok flick!
Show More

User Opinions

Report a bug