The Mummy Returns [2001] 1280x544 HD.Mp4.H264.AAC 5.1 ch.3Li

seeders: 1
leechers: 4
Added on Sep 23, 2009 in Movies
Torrent verified. Downloaded 38 times.

Summary:
The mummified body of Imhotep is shipped to a museum in London, where he once again wakes and begins his campaign of rage and terror.
Submitted by Hand_of_Doom91.63K
report summary
Available in versions: 1080p720pBlu-RayHDRiPDVDDVDRipx264
The Mummy Returns [2001] 1280x544 HD.Mp4.H264.AAC 5.1 ch.3Li (Size: 1.44 GB)
  Subtitle
  The Mummy Returns.mp4 1.44 GB
  snapshot20090923171558.jpg 110.76 KB
  snapshot20090923171529.jpg 105.38 KB
  snapshot20090923171125.jpg 95.38 KB
  snapshot20090923170251.jpg 92.63 KB
  snapshot20090923165749.jpg 84.05 KB
  snapshot20090923165559.jpg 83.99 KB
  snapshot20090923170639.jpg 83.03 KB
  snapshot20090923165104.jpg 82.69 KB
  snapshot20090923170427.jpg 81.07 KB
  snapshot20090923170330.jpg 80.68 KB
  snapshot20090923170801.jpg 80.29 KB
  snapshot20090923165521.jpg 71.1 KB
  snapshot20090923171205.jpg 65.84 KB
  snapshot20090923165256.jpg 59.54 KB
  snapshot20090923170506.jpg 59.25 KB
  snapshot20090923165027.jpg 57.27 KB
  snapshot20090923171231.jpg 56.48 KB

Description



General

Complete name : The Mummy Returns.mp4

Format : MPEG-4

Format profile : Base Media

Codec ID : isom

File size : 1.44 GiB

Duration : 2h 9mn

Overall bit rate : 1 589 Kbps

Encoded date : UTC 2009-09-20 18:09:29

Tagged date : UTC 2009-09-20 18:09:29



Video

ID : 1

Format : AVC

Format/Info : Advanced Video Codec

Format profile : Main@L4.1

Format settings, CABAC : Yes

Format settings, ReFrames : 3 frames

Codec ID : avc1

Codec ID/Info : Advanced Video Coding

Duration : 2h 9mn

Bit rate mode : Variable

Bit rate : 1 396 Kbps

Maximum bit rate : 4 729 Kbps

Width : 1 280 pixels

Height : 544 pixels

Display aspect ratio : 2.35:1

Frame rate mode : Constant

Frame rate : 23.976 fps

Resolution : 24 bits

Colorimetry : 4:2:0

Scan type : Progressive

Bits/(Pixel*Frame) : 0.084

Stream size : 1.26 GiB (88%)

Title : The Mummy Returns By 3Li

Writing library : x264 core 68



Audio

ID : 2

Format : AAC

Format/Info : Advanced Audio Codec

Format version : Version 4

Format profile : LC

Format settings, SBR : No

Codec ID : 40

Duration : 2h 9mn

Bit rate mode : Variable

Bit rate : 192 Kbps

Maximum bit rate : 317 Kbps

Channel(s) : 6 channels

Channel positions : Front: L C R, Rear: L R, LFE

Sampling rate : 48.0 KHz

Resolution : 16 bits

Stream size : 176 MiB (12%)

Title : The Mummy Returns

Language : English

Encoded date : UTC 2009-09-20 18:10:17

Tagged date : UTC 2009-09-20 18:10:25

Related Torrents

torrent name size files age seed leech

Sharing Widget


Download torrent
1.44 GB
seeders:1
leechers:4
The Mummy Returns [2001] 1280x544 HD.Mp4.H264.AAC 5.1 ch.3Li

Trackers

tracker name Status checked seeders leechers downloads
udp://tracker.publicbt.com:80/announce
outdated 24 Jul 2012 - - -
udp://tracker.openbittorrent.com:80/announce
outdated 24 Jul 2012 - - -
http://tracker.openbittorrent.com/announce
outdated 24 Jul 2012 - - -
http://tracker.publicbt.com/announce
deleted 11 Mar 2013 - - -
ĀµTorrent compatible trackers list

Locations

name
Mininova
ExtraTorrent
isoHunt
SumoTorrent
Torrent hash: 4feb6a4a66772b9b3dbff180265ddd9e5c5f0763

All Comments

audio
9/10
video
9/10
please, leave only comments related to that torrent
or sign-in
0
lee431332 • 17 January 2013, 03:48
torrent downloaded
Show comment
audio: 10video: 10
V10 A10 many thanks, 3li what program do you use to rip the blu rays to such high quality?
0
anonymous • 09 October 2011, 00:40 Show comment
its pretty good for a while but then it stops and the screen stays the same and all you can see is a frozen picture. NOT GOOD.
0
anonymous • 08 October 2011, 22:21 Show comment
audio: 10video: 10
great copy, totally recommend it, not only the copy but the movie too :)
0
anonymous • 07 October 2011, 09:46 Show comment
audio: 8video: 9
It sucks crap!!! honestly glitchy....eh quality may be good but it glitches and it's annoying!!!
0
manojnike425 • 12 May 2011, 19:12
torrent downloaded
Show comment
audio: 9video: 9
did not d/l
0
Amaryllia1004 • 10 March 2011, 11:46
torrent downloaded
Show comment
audio: 10video: 10
0
smartkid00072838 • 01 February 2011, 02:36
torrent downloaded
Show comment
audio: 10video: 10
0
haha2010122 • 20 January 2011, 15:38
torrent downloaded
Show comment
audio: 10video: 10
HD video
0
Militades628 • 22 October 2010, 19:49
torrent downloaded
Show comment
audio: 9video: 10
0
Hamadah520 • 28 August 2010, 22:20
torrent downloaded
Show comment
audio: 8video: 8
Thanks a lot
Show More

User Opinions

Report a bug