The Mummy [1999] 720p Dual Audio BlurayRip by Current HD

seeders: 0
leechers: 1
Added on Oct 6, 2010 in Movies > Highres Movies
Torrent verified. Downloaded 0 times.

Available in versions: 1080p720pBDRipHDRiPDVDDVDRipx264VCD
The Mummy [1999] 720p Dual Audio BlurayRip by Current HD (Size: 914.98 MB)
  The Mummy [1999] 720p Dual Audio BlurayRip by Arihant.mkv 904.89 MB
  sample.mkv 10.09 MB

Description


image



image



General

Video Source :- English Bluray Disc



Audio Source :- Hindi Dvdrip

Ripper :- CurrentHD

Ripper Note :- Enjoy this Back to back movies with awesome Quality





Complete name : The Mummy [1999] 720p Dual Audio

BlurayRip by CurrentHD



Format : Matroska



File size : 905 MiB



Duration : 1h 59mn



Overall bit rate : 1 056 Kbps







Video



ID : 1



Format : AVC



Format/Info : Advanced Video Codec



Format profile : High@L3.1



Format settings, CABAC : Yes



Format settings, ReFrames : 5 frames



Muxing mode : Container profile=Unknown@3.1



Codec ID : V_MPEG4/ISO/AVC



Duration : 1h 59mn



Bit rate : 523 Kbps



Nominal bit rate : 520 Kbps



Width : 1 280 pixels



Height : 536 pixels



Display aspect ratio : 2.35:1



Original display aspect ratio : 2.35:1



Frame rate : 25.000 fps



Original frame rate : 23.976 fps



Resolution : 8 bits



Colorimetry : 4:2:0



Scan type : Progressive



Bits/(Pixel*Frame) : 0.031











Audio #1



ID : 2



Format : MPEG Audio



Format version : Version 1



Format profile : Layer 3



Codec ID : A_MPEG/L3



Codec ID/Hint : MP3



Duration : 1h 59mn



Bit rate mode : Constant



Bit rate : 256 Kbps



Channel(s) : 2 channels



Sampling rate : 44.1 KHz



Stream size : 219 MiB (24%)



Title : English Audio by CurrentHD



Language : English







Audio #2



ID : 3



Format : MPEG Audio



Format version : Version 1



Format profile : Layer 3



Codec ID : A_MPEG/L3



Codec ID/Hint : MP3



Duration : 1h 59mn



Bit rate mode : Constant



Bit rate : 256 Kbps



Channel(s) : 2 channels



Sampling rate : 44.1 KHz



Video delay : 1s 0ms



Stream size : 219 MiB (24%)



Title : Hindi Audio by CurrentHD



Language : Hindi



image

image

image

image

image

image

image




Sharing Widget


Download torrent
914.98 MB
seeders:0
leechers:1
The Mummy [1999] 720p Dual Audio BlurayRip by Current HD

Trackers

tracker name Status checked seeders leechers downloads
udp://open.demonii.com:1337/announce
outdated 20 Jun 2014 - - -
udp://tracker.openbittorrent.com:80/announce
outdated 20 Jun 2014 - - -
udp://tracker.publicbt.com:80/announce
outdated 20 Jun 2014 - - -
http://tracker.exdesi.com:6969/h7gcz7qd8q41c9eur0fsg01ehkxc18sl/announce
outdated 22 Apr 2014 - - -
udp://tracker.istole.it:80/announce
outdated 22 Apr 2014 - - -
udp://fr33domtracker.h33t.com:3310/announce
deleted 22 Apr 2014 - - -
udp://tracker.ccc.de:80/announce
deleted 22 Apr 2014 - - -
ĀµTorrent compatible trackers list

Locations

name
1337x
Torrent hash: 9ec377f869b5a6edf794aaa160ab1051e022e0f4

All Comments

audio
0/10
video
0/10
please, leave only comments related to that torrent
or sign-in
0
anonymous • 09 May 2013, 20:39 Show comment
its great movie
0
anonymous • 09 May 2013, 20:40 Show comment
teri pain di movie da achaar pana
0
anonymous • 09 May 2012, 08:07 Show comment
plzzzzzzzzzzz someone seeeeeeeeeeeeeeed

User Opinions

Report a bug