The Mothman Prophecies 2002 WS DVDRip XviD AC3

seeders: 1
leechers: 1
Added on Jun 25, 2009 in Movies
Downloaded 34 times.

Summary:
A reporter is drawn to a small West Virginia town to investigate a series of strange events, including psychic visions and the appearance of bizarre entities.
Submitted by 5fingerdis47.08K
report summary
Available in versions: 720pHDRiPDVDRipx264
The Mothman Prophecies 2002 WS DVDRip XviD AC3 (Size: 1.37 GB)
  The Mothman Prophecies (2002).nfo 1.77 KB
  The Mothman Prophecies (2002).part001.rar 14.31 MB
  The Mothman Prophecies (2002).part002.rar 14.31 MB
  The Mothman Prophecies (2002).part003.rar 14.31 MB
  The Mothman Prophecies (2002).part004.rar 14.31 MB
  The Mothman Prophecies (2002).part005.rar 14.31 MB
  The Mothman Prophecies (2002).part006.rar 14.31 MB
  The Mothman Prophecies (2002).part007.rar 14.31 MB
  The Mothman Prophecies (2002).part008.rar 14.31 MB
  The Mothman Prophecies (2002).part009.rar 14.31 MB
  The Mothman Prophecies (2002).part010.rar 14.31 MB
  The Mothman Prophecies (2002).part011.rar 14.31 MB
  The Mothman Prophecies (2002).part012.rar 14.31 MB
  The Mothman Prophecies (2002).part013.rar 14.31 MB
  The Mothman Prophecies (2002).part014.rar 14.31 MB
  The Mothman Prophecies (2002).part015.rar 14.31 MB
  The Mothman Prophecies (2002).part016.rar 14.31 MB
  The Mothman Prophecies (2002).part017.rar 14.31 MB
  The Mothman Prophecies (2002).part018.rar 14.31 MB
  The Mothman Prophecies (2002).part019.rar 14.31 MB
  The Mothman Prophecies (2002).part020.rar 14.31 MB
  The Mothman Prophecies (2002).part021.rar 14.31 MB
  The Mothman Prophecies (2002).part022.rar 14.31 MB
  The Mothman Prophecies (2002).part023.rar 14.31 MB
  The Mothman Prophecies (2002).part024.rar 14.31 MB
  The Mothman Prophecies (2002).part025.rar 14.31 MB
  The Mothman Prophecies (2002).part026.rar 14.31 MB
  The Mothman Prophecies (2002).part027.rar 14.31 MB
  The Mothman Prophecies (2002).part028.rar 14.31 MB
  The Mothman Prophecies (2002).part029.rar 14.31 MB
  And 69 files more

Description



*** The Mothman Prophecies (2002) ***





..:Movie Info:..





[Cast]





Richard Gere ... John Klein



Debra Messing ... Mary Klein



Will Patton ... Gordon Smallwood



Laura Linney ... Connie Mills





[Synopsis]





John Klein is involved in a car accident with his wife,

but while he is unharmed, his wife mentions a moth shaped

creature appearing. After her death, John begins to

investigate the secrets behind this mentioned Mothman. It

takes him to a small town of Point Pleasant, West Virginia,

where he discovers a connection with the same problem. Here

he meets Connie Mills, whilst he continues to unravel the

mystery of what the Mothman really is.





..:Media Info:..





General

Complete name : [FILEPATH] The Mothman Prophecies (2002).avi

Format : AVI

Format/Info : Audio Video Interleave

File size : 1.37 GiB

Duration : 1h 58mn

Overall bit rate : 1 648 Kbps

Writing application : VirtualDubMod 1.5.4.1 (build 2178/release)

Writing library : VirtualDubMod build 2178/release



Video

Format : MPEG-4 Visual

Format profile : Streaming Video@L1

Format settings, BVOP : Yes

Format settings, QPel : No

Format settings, GMC : No warppoints

Format settings, Matrix : Custom

Codec ID : XVID

Codec ID/Hint : XviD

Duration : 1h 58mn

Bit rate : 1 193 Kbps

Width : 720 pixels

Height : 320 pixels

Display aspect ratio : 2.25

Frame rate : 23.976 fps

Resolution : 24 bits

Colorimetry : 4:2:0

Scan type : Progressive

Bits/(Pixel*Frame) : 0.216

Stream size : 1 014 MiB (72%)

Writing library : XviD 1.2.1 (UTC 2008-12-04)



Audio

Format : AC-3

Format/Info : Audio Coding 3

Codec ID : 2000

Duration : 1h 58mn

Bit rate mode : Constant

Bit rate : 448 Kbps

Channel(s) : 6 channels

Channel positions : Front: L C R, Surround: L R, LFE

Sampling rate : 48.0 KHz

Stream size : 381 MiB (27%)

Alignment : Split accross interleaves

Interleave, duration : 96 ms (2.30 video frames)

Interleave, preload duration : 96 ms

Language : English









..:Other Notes:..





This is a nice creepy one based around some real-life

accounts of the "Mothman." This film also happens to

deal with some events relating to my very own West Virginia...



An inquiry was made about this movie in the forums by chuckiss6

so I hope he/she gets it!





Enjoy...



HotSauceHead

Link: http://www.imdb.com/title/tt0265349/

Related Torrents

torrent name size files age seed leech

Sharing Widget


Download torrent
1.37 GB
seeders:1
leechers:1
The Mothman Prophecies 2002 WS DVDRip XviD AC3

Trackers

tracker name Status checked seeders leechers downloads
http://tracker.ilovetorrents.com/announce.php
private 22 Jul 2009 - - -
ĀµTorrent compatible trackers list

Locations

name
Mininova
Bittorrent.am
TorrentPortal
SumoTorrent
Torrentzap
Torrent hash: 04ca3a067c3d221c48315a5386d27c867ba15b85

All Comments

audio
0/10
video
0/10
please, leave only comments related to that torrent
or sign-in
Report a bug