The Killing S01E03 HDTV XviD Eng Sub Ita-FQM [VTV] arc-[IDN CREW]

seeders: 1
leechers: 0
Added on Apr 15, 2011 by pippifly1823 in TV
Torrent verified. Downloaded 354 times.

The Killing S01E03 HDTV XviD Eng Sub Ita-FQM [VTV] arc-[IDN CREW] (Size: 350 MB)
  IDN_CREW Leggimi.txt 294 bytes
  The.Killing.S01E03.HDTV.XviD.Eng_Sub.Ita-FQM.[VTV]_arc-[IDN_CREW].avi 350 MB

Description

THE KILLING
HDTV ENG SUB ITA


imagehttp://img684.imageshack.us/img684/93/thekilling.jpg" />


image


[color=black]Titolo:
The Killing
Anno: 2011
Nazionalità: United States
Genere: Drammatico - Poliziesco
Lingua: Inglese
Stagione: 1
Episodi: 13
Durata Episodio: 45 min ca (episodio)
Ideatore: Veena Sud
Produzione: Fox Television Studios, Killing Production
Fonti:
http://it.wikipedia.org/wiki/The_Killing_(serie_televisiva)
http://www.amctv.com/shows/the-killing



image

RUOLI
INTERPRETI


Mireille Enos
Sarah Linden
È una detective del dipartimento di polizia di Seattle. Silenziosa e acuta osservatrice, conduce una vita solitaria con il figlio Jack. È pronta a sposarsi con il fidanzato Rick Felder e a trasferirsi con lui nella città californiana di Sonoma, ma l'omicidio di Rosie Larson rimanda i suoi i piani.

Bill Campbell
Darren Richmond
È un consigliere comunale, nonché candidato per l'elezione a sindaco. Ha perso la moglie da qualche anno e ora conduce una relazione sentimentale con Gwen Eaton, membro del suo staff, con cui pianifica di andare a vivere insieme dopo le elezioni.

Joel Kinnaman
Stephen Holder
È un ex detective della narcotici che ha ottenuto la promozione alla squadra omicidi. Appena arrivato a Seattle per sostuite Sarah Linden, si ritroverà ad ingare con lei sull'omicidio di Rosie Larson.

Michelle Forbes
Mitch Larsen
È una casalinga, madre di Rosie Larsen e di altri due figli più piccoli, Denny e Tom.

Brent Sexton
Stanley Larsen
È il marito di Mitch, con cui è sposato da 17 anni, e titolare di una piccola azienda di trasporto merci.

Kristin Lehman
Gwen Eaton
È una consigliera di Darren Richmond, nonché sua amante, appartenente ad una delle più influenti famiglie di Seattle. È determinata a tenere la sua relazione con Darren segreta per non danneggiare la sua campagna elettorale.

Eric Ladin
Jamie Wright
È il capo-staff che guida la campagna elettorale di Richmond.

Katie Findlay
Rosie Larson
È la vittima dell'omicidio.

image

A Seattle una giovane ragazza, Rosie Larsen, viene uccisa. La trama intreccia tre aspetti connessi all'omicidio: le indagini della detective Sarah Linden, affiancata dal collega Stephen Holder; il dolore che colpisce la famiglia della vittima; e un gruppo di politici locali che rischia di vedersi compromessa la campagna elettorale. Con la prosecuzione della storia, diventa chiaro che non ci sono casualità e ognuno dei personaggi coinvolti si porta dietro un segreto che gli impedisce di poter voltare pagina.


Episodi

1. Pilot
2. The Cage
3. El Diablo
4.
5.
6.
7.
8.
9.
10.



image

The Killing è una serie televisiva statunitense poliziesca prodotta dalla Fox Television Studios e dalla Fuse Entertainment per la rete televisiva via cavo AMC, che l'ha trasmessa a partire dal 3 aprile 2011.

The Killing, si presenta come un crime/mistery drama dalla narrazione coinvolgente e avvincente. Basata su un format danese, seppure lontanamente, la serie ha qualcosa in comune anche con 24, perché ciasuno dei 13 episodi si sviluppa con precisione minuziosa nell’arco di una giornata, durante la quale i protagonisti - in primis la detective Sarah Linden interpretata da Mireille Enos - porteranno avanti l'indagine su un contorto caso di omicidio.


image

Lingua: Inglese

Sottotitoli: Italiano impressi a video

Programma Usato: Avirecomp


General
Complete name : The.Killing.S01E03.HDTV.XviD.Eng_Sub.Ita-FQM.[VTV]_arc-[IDN_CREW].avi
Format : AVI
Format/Info : Audio Video Interleave
File size : 350 MiB
Duration : 44mn 48s
Overall bit rate : 1 092 Kbps
Writing application : VirtualDubMod 1.5.10.2 (build 2542/release)
Writing library : VirtualDubMod build 2542/release

Video
Format : MPEG-4 Visual
Format profile : Streaming Video@L1
Format settings, BVOP : Yes
Format settings, QPel : No
Format settings, GMC : No warppoints
Format settings, Matrix : Default
Muxing mode : Packed bitstream
Codec ID : XVID
Codec ID/Hint : XviD
Duration : 44mn 48s
Bit rate : 925 Kbps
Width : 624 pixels
Height : 352 pixels
Display aspect ratio : 16/9
Frame rate : 23.976 fps
Resolution : 24 bits
Colorimetry : 4:2:0
Scan type : Progressive
Bits/(Pixel*Frame) : 0.176
Stream size : 296 MiB (85%)
Writing library : XviD 62

Audio
Format : MPEG Audio
Format version : Version 1
Format profile : Layer 3
Codec ID : 55
Codec ID/Hint : MP3
Duration : 44mn 48s
Bit rate mode : Variable
Bit rate : 154 Kbps
Channel(s) : 2 channels
Sampling rate : 48.0 KHz
Resolution : 16 bits
Stream size : 49.5 MiB (14%)
Alignment : Aligned on interleaves
Interleave, duration : 24 ms (0.58 video frame)
Interleave, preload duration : 280 ms






image

Immagini catturate con VLC Media Player

image
image
image
image
image

Related Torrents

torrent name size files age seed leech

Sharing Widget


Download torrent
350 MB
seeders:1
leechers:0
The Killing S01E03 HDTV XviD Eng Sub Ita-FQM [VTV] arc-[IDN CREW]

Trackers

tracker name Status checked seeders leechers downloads
http://genesis.1337x.org:1337/announce
outdated 13 Jul 2011 - - -
http://nemesis.1337x.org/announce
outdated 13 Jul 2011 - - -
http://torrent-downloads.to:5869/announce
outdated 15 Apr 2011 - - -
http://tracker.openbittorrent.com/announce
outdated 15 Apr 2011 - - -
udp://tracker.publicbt.com:80/announce
outdated 15 Apr 2011 - - -
udp://tracker.openbittorrent.com:80/announce
outdated 15 Apr 2011 - - -
http://tracker.publicbt.com/announce
deleted 18 Aug 2011 - - -
http://9.rarbg.com:2710/announce
private 15 Apr 2011 - - -
µTorrent compatible trackers list

Locations

name
KickassTorrents
Torrent hash: dc206b7a2db47f530b40bbdeb036bcf08e078e95

All Comments

audio
0/10
video
0/10
please, leave only comments related to that torrent
or sign-in
Report a bug