The Jungle Book 2013 DVDRip mkv

seeders: 3
leechers: 2
Added on May 16, 2013 by brookeful3876 in Movies
Torrent verified. Downloaded 103 times.

The Jungle Book 2013 DVDRip mkv (Size: 674.74 MB)
  The Jungle Book 2013.mkv 672.97 MB
  vlcsnap-2013-05-16-09h44m04s131.png 568.85 KB
  vlcsnap-2013-05-16-09h47m45s71.png 550.6 KB
  vlcsnap-2013-05-16-09h48m42s149.png 374.27 KB
  SL1297_.jpg 314.26 KB
  The Jungle Book 2013.rtf 2.54 KB
  Document.rtf 606 bytes

Description

image

There's trouble in the jungle, and as usual, Mowgli and Mani are at the center of it all! While they enjoy their time drumming away at logs in the jungle, Shere Khan plots to put an end to the noise. Meanwhile, Tabaqui is stuck in a well, Appu gets lost, and there's something fishy going on at the Cold Lair Will Mowgli escape the clutches of the evil Shere Khan, and manage to still have time to join his friends in the jungle rhythm?

image

image

image

General
Complete name : The Jungle Book 2013.mkv
Format : Matroska
File size : 673 MiB
Duration : 1h 2mn
Overall bit rate : 1 498 Kbps
Movie name : THE_JUNGLE_BOOK.Title1.DVDRip
Encoded date : UTC 2013-05-15 16:58:13
Writing library : libebml v0.7.8 + libmatroska v0.8.1

Video
ID : 1
Format : AVC
Format/Info : Advanced Video Codec
Format profile : Main@L3.0
Format settings, CABAC : Yes
Format settings, ReFrames : 2 frames
Codec ID : V_MPEG4/ISO/AVC
Duration : 1h 2mn
Bit rate : 1 020 Kbps
Width : 720 pixels
Height : 404 pixels
Display aspect ratio : 16:9
Frame rate : 23.976 fps
Color space : YUV
Chroma subsampling : 4:2:0
Bit depth : 8 bits
Scan type : Progressive
Bits/(Pixel*Frame) : 0.146
Stream size : 458 MiB (68%)
Writing library : x264 core
Color primaries : BT.601-6 525, BT.1358 525, BT.1700 NTSC, SMPTE 170M
Transfer characteristics : BT.709-5, BT.1361
Matrix coefficients : BT.601-6 525, BT.1358 525, BT.1700 NTSC, SMPTE 170M

Audio
ID : 2
Format : AC-3
Format/Info : Audio Coding 3
Mode extension : CM (complete main)
Codec ID : A_AC3
Duration : 1h 2mn
Bit rate mode : Constant
Bit rate : 448 Kbps
Channel(s) : 6 channels
Channel positions : Front: L C R, Side: L R, LFE
Sampling rate : 48.0 KHz
Bit depth : 16 bits
Compression mode : Lossy
Stream size : 201 MiB (30%)

Related Torrents

torrent name size files age seed leech

Sharing Widget


Download torrent
674.74 MB
seeders:3
leechers:2
The Jungle Book 2013 DVDRip mkv

Trackers

tracker name Status checked seeders leechers downloads
udp://tracker.feednet.ro:80/announce
outdated 26 Jun 2013 - - -
udp://tracker.istole.it:80/announce
outdated 26 Jun 2013 - - -
udp://tracker.publicbt.com:80/announce
outdated 26 Jun 2013 - - -
udp://tracker.openbittorrent.com:80/announce
outdated 26 Jun 2013 - - -
udp://fr33domtracker.h33t.com:3310/announce
deleted 26 Jun 2013 - - -
µTorrent compatible trackers list

Locations

name
KickassTorrents
Torrent hash: 7D7D30722F063E2D9495B95DC23B342BF36D1F82

All Comments

audio
9/10
video
8/10
please, leave only comments related to that torrent
or sign-in
0
cdvision744 • 17 May 2013, 08:42
torrent downloaded
Show comment
audio: 9video: 8
thx

User Opinions

SRIGGA2516, storm-shadow1121, cdvision744, nikjcd439
Report a bug