The Impossible [720p.BluRay.DTS.x264][Sub - Spanish/Polish]

seeders: 1
leechers: 1
Added on Feb 10, 2013 by Evil.Inside11.93K in Movies > Highres Movies
Torrent verified. Downloaded 10 times.

Summary:
The story of a tourist family in Thailand caught in the destruction and chaotic aftermath of the 2004 Indian Ocean tsunami.
Submitted by 5fingerdis47.07K
report summary
The Impossible [720p.BluRay.DTS.x264][Sub - Spanish/Polish] (Size: 6.55 GB)
  The Impossible (2012) 720p BluRay DTS x264.mkv 6.55 GB
  folder.jpg 117.24 KB

Description

image

Gatunek: Dramat
Produkcja: Hiszpania
Premiera: 25 stycznia 2013 (Polska) 9 września 2012 (świat)
Reżyseria: Juan Antonio Bayona
Scenariusz: Sergio G. Sánchez

Fabuła:

Niezwykle poruszająca i nakręcona z ogromnym rozmachem historia rodziny, która przeżyła tsunami 2004 roku - jeden z największych kataklizmów naszych czasów. Tajlandia, 2004 rok. Maria (Naomi Watts) i Henry (Ewan McGregor) wraz z trójką synów postanawiają spędzić święta Bożego Narodzenia w samym...

Obsada:

Naomi Watts ... Maria
Ewan McGregor ... Henry
Tom Holland ... Lucas
Samuel Joslin ... Thomas
Oaklee Pendergast ... Simon
Marta Etura ... Simone

Dane techniczne:

Subtitles Muxed:Spanish, Polish

Format : Matroska
Format version : Version 4 / Version 2
File size : 6.55 GiB
Duration : 1h 53mn
Overall bit rate : 8 258 Kbps
Writing library : libebml v1.3.0 + libmatroska v1.4.0
Attachment : Yes
Video #1
ID : 1
Format : AVC
Format/Info : Advanced Video Codec
Format profile : High@L4.1
Format settings, CABAC : Yes
Format settings, ReFrames : 5 frames
Codec ID : V_MPEG4/ISO/AVC
Duration : 1h 53mn
Bit rate : 6 743 Kbps
Width : 1 280 pixels
Height : 542 pixels
Display aspect ratio : 2.35:1
Frame rate mode : Constant
Frame rate : 24.000 fps
Color space : YUV
Chroma subsampling : 4:2:0
Bit depth : 8 bits
Scan type : Progressive
Bits/(Pixel*Frame) : 0.405
Stream size : 5.22 GiB (80%)
Writing library : x264
Language : English
Default : Yes
Forced : No
Audio #2
ID : 2
Format : DTS
Format/Info : Digital Theater Systems
Mode : 16
Format settings, Endianness : Big
Codec ID : A_DTS
Duration : 1h 53mn
Bit rate mode : Constant
Bit rate : 1 509 Kbps
Channel(s) : 6 channels
Channel positions : Front: L C R, Side: L R, LFE
Sampling rate : 48.0 KHz
Bit depth : 24 bits
Compression mode : Lossy
Stream size : 1.20 GiB (18%)
Language : English
Default : Yes
Forced : No
Text #3
ID : 3
Format : VobSub
Muxing mode : zlib
Codec ID : S_VOBSUB
Codec ID/Info : The same subtitle format used on DVDs
Language : Spanish
Default : No
Forced : No
Text #4
ID : 4
Format : VobSub
Muxing mode : zlib
Codec ID : S_VOBSUB
Codec ID/Info : The same subtitle format used on DVDs
Language : Spanish
Default : No
Forced : No
Text #5
ID : 5
Format : UTF-8
Codec ID : S_TEXT/UTF8
Codec ID/Info : UTF-8 Plain Text
Language : Polish
Default : Yes
Forced : No

Sharing Widget


Download torrent
6.55 GB
seeders:1
leechers:1
The Impossible [720p.BluRay.DTS.x264][Sub - Spanish/Polish]

Trackers

tracker name Status checked seeders leechers downloads
udp://tracker.openbittorrent.com:80/announce
outdated 06 Jan 2014 - - -
udp://tracker.publicbt.com:80/announce
outdated 06 Jan 2014 - - -
udp://tracker.istole.it:80/announce
outdated 06 Jan 2014 - - -
µTorrent compatible trackers list

Locations

name
KickassTorrents
Torrent hash: 8E2B2338935E785EBCE667225F7513A2ADF68C14

All Comments

audio
10/10
video
10/10
please, leave only comments related to that torrent
or sign-in
1
jacosz180 • 18 March 2013, 09:59
torrent downloaded
Show comment
audio: 10video: 10

User Opinions

jacosz180
Report a bug