The Hunters 2011 DVDRip Xvid AC3-26K

seeders: 27
leechers: 8
Added on Dec 28, 2011 by hail_alpha66074 in Movies
Torrent verified. Downloaded 40 times.

Available in versions: DVDDVDRip
The Hunters 2011 DVDRip Xvid AC3-26K (Size: 1.73 GB)
  att-networks.com.txt 39 bytes
  sample.avi 38.17 MB
  Sceneunderground.org.txt 77 bytes
  Torrent downloaded from Demonoid.me.txt 46 bytes
  The Hunters 2011 DVDRip Xvid AC3-26K.sub 3.96 MB
  The Hunters 2011 DVDRip Xvid AC3-26K.avi 1.69 GB
  The Hunters 2011 DVDRip Xvid AC3-26K.idx 48.62 KB
  The Hunters 2011 DVDRip Xvid AC3-26K.nfo 3.36 KB
  HDSceneRG.txt 115 bytes

Description

image

The Hunters 2011 DVDRip Xvid AC3-26K

Imdb:
http://www.imdb.com/title/tt1591504/

Plot:
Alice and her friends are approaching the end of the school year where their dead-end lives will end and the chance of a new life will begin

Sources:
OWN DVDR

Notes:
enjoy!
english subs included!!

Greetz:
Xtreme Encode|FYA|ILLUMANTI|CM8|RX|VISION|HDSCENE|NIGHTMAREZ|xTriLL|DTRG|CRYS|REMIXHD|BIDA
To all the people who have helped me :P you know who you are

Anything to offer email us @: 26k@hushmail.me

Video
ID : 0
Format : MPEG-4 Visual
Format profile : Advanced Simple@L5
Format settings, BVOP : 2
Format settings, QPel : No
Format settings, GMC : No warppoints
Format settings, Matrix : Default (H.263)
Codec ID : XVID
Codec ID/Hint : XviD
Duration : 1h 44mn
Bit rate : 1 900 Kbps
Width : 720 pixels
Height : 304 pixels
Display aspect ratio : 2.35:1
Frame rate : 25.000 fps
Color space : YUV
Chroma subsampling : 4:2:0
Bit depth : 8 bits
Scan type : Progressive
Compression mode : Lossy
Bits/(Pixel*Frame) : 0.347
Stream size : 1.39 GiB (83%)
Writing library : XviD 63

Audio
ID : 1
Format : AC-3
Format/Info : Audio Coding 3
Mode extension : CM (complete main)
Codec ID : 2000
Duration : 1h 44mn
Bit rate mode : Constant
Bit rate : 384 Kbps
Channel(s) : 6 channels
Channel positions : Front: L C R, Side: L R, LFE
Sampling rate : 48.0 KHz
Bit depth : 16 bits
Compression mode : Lossy
Stream size : 288 MiB (17%)
Alignment : Aligned on interleaves
Interleave, duration : 40 ms (1.00 video frame)

Screens:
image
image
image
image
image
image


image#
Thank you smallz for banner!

Related Torrents

torrent name size files age seed leech

Sharing Widget


Download torrent
1.73 GB
seeders:27
leechers:8
The Hunters 2011 DVDRip Xvid AC3-26K

Trackers

tracker name Status checked seeders leechers downloads
udp://tracker.publicbt.com:80/announce
outdated 23 Feb 2014 - - -
udp://tracker.openbittorrent.com:80/announce
outdated 23 Feb 2014 - - -
http://announce.torrentsmd.com:6969/announce
outdated 23 Feb 2014 - - -
http://secure.pow7.com/announce
outdated 23 Sep 2013 - - -
http://tracker.openbittorrent.com/announce
outdated 23 Sep 2013 - - -
udp://tracker.1337x.org:80/announce
outdated 23 Sep 2013 - - -
http://cpleft.com:2710/announce
outdated 23 Sep 2013 - - -
http://tracker.torrentbay.to:6969/announce
outdated 23 Sep 2013 - - -
http://inferno.demonoid.me:3414/announce
outdated 23 Sep 2013 - - -
http://exodus.desync.com/announce
blocked 23 Feb 2014 - - -
http://exodus.desync.com:6969/announce
blocked 23 Sep 2013 - - -
http://tracker.publicbt.com/announce
deleted 23 Sep 2013 - - -
http://fr33dom.h33t.com:3310/announce
deleted 23 Sep 2013 - - -
http://tracker.novalayer.org:6969/announce
pending 23 Sep 2013 3041 1995 18677
ĀµTorrent compatible trackers list

Locations

name
KickassTorrents
ThePirateBay
Limetorrents
ExtraTorrent
Torrent hash: D0085FD7F0F302CBAC084CA3398CC3FAC86E3D36

Top Comments

26
2MuchInternet82 • 30 Dec 2011, 01:09
torrent downloaded
The Hunter and The Hunters are two different movies, make sure this is the one you're looking for before downloading the wrong movie!
3
kitten76552760 • 08 Feb 2012, 22:27
torrent downloaded
audio: 10video: 10
dumb movie, but great copy

All Comments

audio
8/10
video
8/10
please, leave only comments related to that torrent
or sign-in
0
phartiyal325 • 23 March 2014, 22:12
torrent downloaded
Show comment
audio: 9video: 7
a okay movie
0
Troll-Boy9188 • 08 November 2013, 07:39
torrent downloaded
Show comment
audio: 10video: 10
THANKS NiCE 1
0
tushar9031214 • 30 October 2013, 16:09
torrent downloaded
Show comment
good
0
sarg0797 • 24 October 2013, 11:11
torrent downloaded
Show comment
thank you
0
abhi_nino4140 • 23 October 2013, 11:37
torrent downloaded
Show comment
audio: 8video: 9
Thanks uploader
0
BeastBlast8406 • 17 October 2013, 07:21
torrent downloaded
Show comment
audio: 9video: 9
0
Mughal12511518 • 10 October 2013, 17:58
torrent downloaded
Show comment
audio: 9video: 9
Thanks For Upload hail_alpha66074
Good Torrent
Thanks
Show More

User Opinions

q8djent5022, TeGiiGii4473, TheToughestBloke2491, nikozzz869, olhos817, susio561, hope441, joe123321235, techsoloboy140, js116 ... And 762 more
BINGOWINGZ6372, kitten76552760, amayita2562, kidzrback1302, kameln10396, Genius239, rflo524163, manu148, MauroMN89, mikekiche88 ... And 71 more
Report a bug