The Hangover Part II 2011 DVDRip XviD-LTW-[BTARENA].avi

seeders: 315
leechers: 44
Added on Oct 18, 2011 by AiTB14.55K in Movies
Downloaded 6,280 times.

  • Movie: The Hangover 2
  • IMDB link: 1411697
  • Detected quality: DVDRip
  • IMDB rating: 6.6 (115,575 votes)
  • RottenTomatoes: 34% 53%
  • Genre: Comedy
The Hangover Part II 2011 DVDRip XviD-LTW-[BTARENA].avi (Size: 1.47 GB)
  The.Hangover.Part.II.2011.DVDRip.XviD-LTW.avi 1.47 GB

Description

image

info, sample..


The Hangover Part II (2011)
Genre: Comedy
Ratings: 6.9/10 from 59,501 users


Two years after the bachelor party in Las Vegas, Phil, Stu, Alan, and Doug jet to Thailand for Stu's wedding. Stu's plan for a subdued pre-wedding brunch, however, goes seriously awry.


Video
ID : 0
Format : MPEG-4 Visual
Format profile : Advanced Simple@L5
Format settings, BVOP : 1
Format settings, QPel : No
Format settings, GMC : No warppoints
Format settings, Matrix : Custom
Codec ID : XVID
Codec ID/Hint : XviD
Duration : 1h 37mn
Bit rate : 1 950 Kbps
Width : 672 pixels
Height : 288 pixels
Display aspect ratio : 2.35:1
Frame rate : 29.970 fps
Color space : YUV
Chroma subsampling : 4:2:0
Bit depth : 8 bits
Scan type : Progressive
Compression mode : Lossy
Bits/(Pixel*Frame) : 0.336
Stream size : 1.33 GiB (91%)
Writing library : XviD 1.2.1 (UTC 2008-12-04)

Audio
ID : 1
Format : AC-3
Format/Info : Audio Coding 3
Mode extension : CM (complete main)
Codec ID : 2000
Duration : 1h 37mn
Bit rate mode : Constant
Bit rate : 192 Kbps
Channel(s) : 2 channels
Channel positions : Front: L R
Sampling rate : 48.0 KHz
Bit depth : 16 bits
Compression mode : Lossy
Stream size : 134 MiB (9%)
Alignment : Split accross interleaves
Interleave, duration : 96 ms (2.88 video frames)
Interleave, preload duration : 96 ms
Language : English

image

image

Sharing Widget


Download torrent
1.47 GB
seeders:315
leechers:44
The Hangover Part II 2011 DVDRip XviD-LTW-[BTARENA].avi

Trackers

tracker name Status checked seeders leechers downloads
http://tracker.openbittorrent.com/announce
outdated 19 Dec 2012 - - -
udp://tracker.istole.it:80/announce
outdated 19 Dec 2012 - - -
udp://tracker.publicbt.com:80/announce
outdated 19 Dec 2012 - - -
udp://tracker.openbittorrent.com:80/announce
outdated 19 Dec 2012 - - -
http://tracker.istole.it/announce
outdated 19 Dec 2012 - - -
http://pow7.com/announce
outdated 19 Dec 2012 - - -
http://exodus.desync.com:6969/announce
blocked 19 Dec 2012 - - -
http://fr33dom.h33t.com:3310/announce
deleted 17 May 2013 - - -
http://tracker.publicbt.com/announce
deleted 11 Mar 2013 - - -
ĀµTorrent compatible trackers list

Locations

name
KickassTorrents
ThePirateBay
ExtraTorrent
Limetorrents
Torrent hash: A054B5FE58E0CF36F9C7D52D6382719EFCDA2A0A

All Comments

audio
9/10
video
9/10
please, leave only comments related to that torrent
or sign-in
0
xavier9498 • 17 January 2013, 08:21
torrent downloaded
Show comment
audio: 9video: 9
great print
0
AZV2664 • 16 February 2012, 17:23
torrent downloaded
Show comment
thanks
0
OgreV4793 • 21 October 2011, 06:58
torrent downloaded
Show comment
audio: 10video: 9
Thanks
BURN: 10
0
anonymous • 19 October 2011, 00:30 Show comment
is this really dvdrip?

User Opinions

Shuvo67837.49K, AngryWolf14.6K, OgreV4793, vejron721072, bineski464, LisaKikinASS458, thorn420ca241, MAX2nd226, sjl9735103, serkanxl13
Report a bug