The Grapes of Wrath (1940)[DVDRip][big dad e™]

seeders: 8
leechers: 2
Added on Feb 12, 2011 by big_dad_e1364 in Movies
Torrent verified. Downloaded 10 times.

Available in versions: 1080p720pHDRiPDVDDVDRipx264
The Grapes of Wrath (1940)[DVDRip][big dad e™] (Size: 1.65 GB)
  The Grapes of Wrath (1940)[DVDRip][big_dad_e™].avi 1.65 GB
  filesharing_not_illegal_yet.jpg 258.86 KB
  The Grapes of Wrath (1940)[DVDRip][big_dad_e™].jpg 35.04 KB
  big_dad_e™.jpg 17.05 KB
  The Grapes of Wrath (1940)[DVDRip][big_dad_e™].txt 4.14 KB
  Torrent downloaded from Demonoid.me.txt 46 bytes

Description


image

The Grapes of Wrath (1940) B & W



Director: John Ford



The Grapes of Wrath is a 1940 drama film directed by John Ford. It was based on John Steinbeck's Pulitzer Prize winning novel of the same name. The screenplay was written by Nunnally Johnson and the executive producer was Darryl F. Zanuck.



The film tells the story of the Joads, an Oklahoma family, who, after losing their farm during the Great Depression in the 1930s, become migrant workers and end up in California. The motion picture details their arduous journey across the United States as they travel to California in search of work and opportunities for the family members.



In 1989, this film was one of the first 25 films to be selected for preservation in the United States National Film Registry by the Library of Congress as being "culturally, historically, or aesthetically significant."



Production on the film began on October 4, 1939, and was completed on November 16, 1939. Some of the filming locations include: McAlester, Sayre both in Oklahoma; Gallup, Laguna Pueblo, and Santa Rosa, all in New Mexico; Lamont, Needles, San Fernando Valley, all in California; Topock, Petrified Forest National Park, all in Arizona.



Media Info:

General

Complete name : J:SeedingThe Grapes of Wrath (1940)[DVDRip][big_dad_e™]The Grapes of Wrath (1940)[DVDRip][big_dad_e™].AVI

Format : AVI

Format/Info : Audio Video Interleave

File size : 1.65 GiB

Duration : 2h 9mn

Overall bit rate : 1 832 Kbps



Video

ID : 0

Format : MPEG-4 Visual

Format profile : Simple@L3

Format settings, BVOP : No

Format settings, QPel : No

Format settings, GMC : No warppoints

Format settings, Matrix : Default (H.263)

Codec ID : XVID

Codec ID/Hint : XviD

Duration : 2h 9mn

Bit rate : 1 500 Kbps

Width : 718 pixels

Height : 480 pixels

Display aspect ratio : 4:3

Frame rate : 23.976 fps

Color space : YUV

Chroma subsampling : 4:2:0

Bit depth : 8 bits

Scan type : Progressive

Bits/(Pixel*Frame) : 0.181

Stream size : 1.35 GiB (82%)

Writing library : XviD



Audio

ID : 1

Format : MPEG Audio

Format version : Version 1

Format profile : Layer 3

Mode : Joint stereo

Codec ID : 55

Codec ID/Hint : MP3

Duration : 2h 9mn

Bit rate mode : Constant

Bit rate : 320 Kbps

Channel(s) : 2 channels

Sampling rate : 48.0 KHz

Stream size : 296 MiB (17%)

Alignment : Split accross interleaves

Interleave, duration : 24 ms (0.58 video frame)

Interleave, preload duration : 575 ms

Writing library : LAME3.98



File Scan:

Malwarebytes' Anti-Malware 1.50.1.1100

www.malwarebytes.org



Database version: 5743

2/11/2011 6:33:51 PM

mbam-log-2011-02-11 (18-33-51).txt



Scan type: Quick scan

Objects scanned: 6

Time elapsed: 22 second(s)



Memory Processes Infected: 0

Memory Modules Infected: 0

Registry Keys Infected: 0

Registry Values Infected: 0

Registry Data Items Infected: 0

Folders Infected: 0

Files Infected: 0



Memory Processes Infected:

(No malicious items detected)



Memory Modules Infected:

(No malicious items detected)



Registry Keys Infected:

(No malicious items detected)



Registry Values Infected:

(No malicious items detected)



Registry Data Items Infected:

(No malicious items detected)



Folders Infected:

(No malicious items detected)



Files Infected:

(No malicious items detected)

ALWAYS SEED & THANKS SEEDERS!

http://www.imdb.com/title/tt0032551/




Related Torrents

torrent name size files age seed leech

Sharing Widget


Download torrent
1.65 GB
seeders:8
leechers:2
The Grapes of Wrath (1940)[DVDRip][big dad e™]

Trackers

tracker name Status checked seeders leechers downloads
udp://tracker.openbittorrent.com:80/announce
outdated 13 Jun 2014 - - -
udp://tracker.publicbt.com:80/announce
outdated 13 Jun 2014 - - -
http://pow7.com/announce
outdated 31 May 2013 - - -
http://exodus.1337x.org/announce
outdated 31 May 2013 - - -
http://tracker.openbittorrent.com/announce
outdated 31 May 2013 - - -
http://tracker.publicbt.com/announce
deleted 31 May 2013 - - -
http://fr33dom.h33t.com:3310/announce
deleted 31 May 2013 - - -
µTorrent compatible trackers list

Locations

name
KickassTorrents
ThePirateBay
1337x
Limetorrents
Limetorrents
Torrent hash: 70cdfa00cbdd0982e31664d122d30fdbb929d309

All Comments

audio
8/10
video
9/10
please, leave only comments related to that torrent
or sign-in
0
KedBecker310 • 22 August 2014, 17:35
torrent downloaded
Show comment
wasn't able to find subtitles for this one
0
DaddyYankee0744 • 16 August 2013, 16:59
torrent downloaded
Show comment
audio: 10video: 10
thanksssss good quality Read the book to there both good
0
poinsecurra2292 • 11 August 2013, 22:50
torrent downloaded
Show comment
audio: 8video: 9
Excellent film and quality.
0
dutchmoon94 • 29 October 2012, 22:07
torrent downloaded
Show comment
love it!!
1
aceseven14.31K • 03 March 2012, 05:26
torrent downloaded
Show comment
audio: 9video: 9
pure classic.



recommanded.




thank you.
0
pata5321 • 22 January 2012, 18:36
torrent downloaded
Show comment
Good quality download. Thanks.
0
yellow___snow1454 • 27 December 2011, 22:48
torrent downloaded
Show comment
audio: 9video: 9
great classic thanx for the share
0
TheCatBurg2339 • 27 August 2011, 06:18
torrent downloaded
Show comment
audio: 6video: 7
Good quality for 1940. Narrow screen and a bit crackly sound. Nice to see it however. I was surprised at how close to the events this film was made ... I read the book in the 1970s.
I recommend this film
0
origionalorb909 • 20 August 2011, 01:34
torrent downloaded
Show comment
audio: 10video: 10
solid
0
emmo2112117 • 25 March 2011, 23:02
torrent downloaded
Show comment
audio: 10video: 10
the rating reflects the time the movie was made...good movie

User Opinions

aceseven14.31K, kuturkutur1094, acidtest1042, cookie1472, ClearDawn442, flashdance53284, Atlasica205, emmo2112117, ZheXia101, Fat Man27 ... And 26 more
Report a bug