The Girl with the Dragon Tattoo 2011 CAM READNFO Xvid-26K

seeders: 14
leechers: 1
Added on Jan 5, 2012 by hail_alpha66.4K in Movies
Torrent verified. Downloaded 12,607 times.

Summary:
Journalist Mikael Blomkvist is aided in his search for a woman who has been missing for forty years by Lisbeth Salander, a young computer hacker.
Submitted by phoenix66110.43K
report summary
The Girl with the Dragon Tattoo 2011 CAM READNFO Xvid-26K (Size: 1.2 GB)
  sample.avi 30.81 MB
  Sceneunderground.org.txt 77 bytes
  att-networks.com.txt 39 bytes
  Torrent downloaded from Demonoid.me.txt 46 bytes
  The Girl with the Dragon Tattoo 2011 CAM READNFO Xvid-26K.avi 1.17 GB
  The Girl with the Dragon Tattoo 2011 CAM READNFO Xvid-26K.nfo 3.53 KB
  HDSceneRG.txt 115 bytes

Description

image

The Girl with the Dragon Tattoo 2011 CAM READNFO Xvid-26K

Imdb:
http://www.imdb.com/title/tt1568346/

Plot:
Journalist Mikael Blomkvist is aided in his search for a woman who has been missing for forty years by Lisbeth Salander, a young computer hacker.

Sources:
RUSSIAN VIDEO THNXS
SIC AUDIO U ROCK MAN! THNXS

Notes:
why readnfo the video has 6 mins missing at the start so the audio had to be cut so the length of the audio and video matched up!
slight oos at some places but this was fixed! so enjoy and a big thnxs to a friend for the support!


Greetz:
Xtreme Encode|FYA|ILLUMANTI|CM8|RX|VISION|HDSCENE|NIGHTMAREZ|xTriLL|DTRG|CRYS|REMIXHD|BIDA|RX|REFILL| INSPiRAL|SIC

Anything to offer email us @: 26k@hushmail.me

Video
ID : 0
Format : MPEG-4 Visual
Format profile : Advanced Simple@L5
Format settings, BVOP : 2
Format settings, QPel : No
Format settings, GMC : No warppoints
Format settings, Matrix : Default (H.263)
Codec ID : XVID
Codec ID/Hint : XviD
Duration : 2h 27mn
Bit rate : 999 Kbps
Width : 720 pixels
Height : 344 pixels
Display aspect ratio : 2.093
Frame rate : 25.000 fps
Color space : YUV
Chroma subsampling : 4:2:0
Bit depth : 8 bits
Scan type : Progressive
Compression mode : Lossy
Bits/(Pixel*Frame) : 0.161
Stream size : 1.03 GiB (88%)
Writing library : XviD 63

Audio
ID : 1
Format : MPEG Audio
Format version : Version 1
Format profile : Layer 3
Mode : Joint stereo
Mode extension : MS Stereo
Codec ID : 55
Codec ID/Hint : MP3
Duration : 2h 27mn
Bit rate mode : Constant
Bit rate : 128 Kbps
Channel(s) : 2 channels
Sampling rate : 44.1 KHz
Compression mode : Lossy
Stream size : 135 MiB (11%)
Alignment : Aligned on interleaves
Interleave, duration : 40 ms (1.00 video frame)
Writing library : LAME3.98r
Encoding settings : -m j -V 4 -q 2 -lowpass 17 -b 128


Screens:
image
image
image
image
image

image#
Thank you smallz for banner!

Related Torrents

torrent name size files age seed leech

Sharing Widget


Download torrent
1.2 GB
seeders:14
leechers:1
The Girl with the Dragon Tattoo 2011 CAM READNFO Xvid-26K

Trackers

tracker name Status checked seeders leechers downloads
http://tracker.torrentbay.to:6969/announce
outdated 02 Dec 2012 - - -
http://inferno.demonoid.me:3414/announce
outdated 18 Nov 2012 - - -
http://secure.pow7.com/announce
outdated 09 May 2012 - - -
http://tracker.ex.ua/announce
outdated 11 Jan 2012 - - -
http://cpleft.com:2710/announce
outdated 11 Jan 2012 - - -
udp://tracker.1337x.org:80/announce
outdated 06 Jan 2012 - - -
http://announce.torrentsmd.com:6969/announce
outdated 06 Jan 2012 - - -
http://tracker.openbittorrent.com/announce
outdated 06 Jan 2012 - - -
udp://tracker.publicbt.com:80/announce
outdated 06 Jan 2012 - - -
udp://tracker.openbittorrent.com:80/announce
outdated 06 Jan 2012 - - -
http://exodus.desync.com:6969/announce
blocked 19 Aug 2012 - - -
http://fr33dom.h33t.com:3310/announce
deleted 09 May 2013 - - -
http://tracker.publicbt.com/announce
deleted 11 Mar 2013 - - -
http://tracker.novalayer.org:6969/announce
pending 06 Jan 2012 291 1746 257
µTorrent compatible trackers list

Locations

name
KickassTorrents
ThePirateBay
ExtraTorrent
Limetorrents
Torrent hash: D597CAE9350CAA220F77F242B682C9E0336D1730

All Comments

audio
5/10
video
4/10
please, leave only comments related to that torrent
or sign-in
0
Issues66 • 05 February 2012, 17:59
torrent downloaded
Show comment
audio: 5video: 5
Missing a little at the begining.
0
aranyka82568 • 20 January 2012, 02:06
torrent downloaded
Show comment
audio: 1video: 1
0
bassting1 • 13 January 2012, 18:40
torrent downloaded
Show comment
hi,first come in....
0
sm420kie286 • 13 January 2012, 15:50
torrent downloaded
Show comment
audio: 7video: 6
0
sensermelia838 • 11 January 2012, 02:52
torrent downloaded
Show comment
audio: 5video: 5
cant wait to watch this but unfortunately prefer to wait for better upload much appreciated anyway
1
fl1pp3d4 • 10 January 2012, 16:48
torrent downloaded
Show comment
audio: 7video: 5
everyone is pretty much right, the first few minutes are gone (but i expected that because i actually read the info page). also, a few spots during the movie something covers the camera and all we get is a black screen with sound. pictures goes in and out of focus a lot, but i still watched it. not the best cam ever, but ive been wanting to see this movie and im broke just like everyone else here. take what you can get i suppose. thanks uploader :)
0
Maniac91220 • 10 January 2012, 01:24 Show comment
audio: 2video: 2
0
lalababy2334 • 09 January 2012, 17:39
torrent downloaded
Show comment
audio: 4video: 4
I'll wait for a better copy.
0
haroldshipman222 • 08 January 2012, 23:13
torrent downloaded
Show comment
awful cudnt watch it only could handle 10mins of it :(
0
FlaviusRusnak14 • 08 January 2012, 04:13
torrent downloaded
Show comment
dumb movie
Show More

User Opinions

IBApirate6271, Fireman58444474, stitches1233108, jepjr007645, scooters296, daqnel274, bigrock35985, madmandean69, MING432752, ramzijr3 ... And 26 more
lalababy2334, smallfry221571, Rockstar Games™1544, zoumpaios505, stilleyes362, Wilmy235, haroldshipman222, Yadda163, psycho_outlaw37, aShyy27 ... And 7 more
Report a bug