The Five-Year Engagement 2012 720p x264 Mp4 AAC TSRG

seeders: 5
leechers: 4
Added on Sep 3, 2012 in Movies
Downloaded 0 times.

Summary:
No summary yet
The Five-Year Engagement 2012 720p x264 Mp4 AAC TSRG (Size: 1.86 GB)
  The.Five-Year.Engagement.3.3.png 1.25 MB
  The.Five-Year.Engagement.Cover.jpg 17.01 KB
  The.Five-Year.Engagement.2012.720p.x264.Mp4.AAC.TSRG.mp4 1.84 GB
  The.Five-Year.Engagement.2012.720p.x264.Mp4.AAC.TSRG.Sample.mp4 14.41 MB
  The.Five-Year.Engagement.2.2.png 753.04 KB
  The.Five-Year.Engagement.1.1.png 1.22 MB

Description



Exactly one year after Tom Solomon meets Violet Barnes, he surprises her with a ring. By all accounts, Tom and Violet are destined for their happily ever after. However, this engaged couple just keep getting tripped up on the long walk down the aisle.
General

Complete name : The.Five-Year.Engagement.2012.720p.x264.Mp4.AAC.TSRG

Format : MPEG-4

Format profile : Base Media / Version 2

Codec ID : mp42

File size : 1.84 GiB

Duration : 2h 11mn

Overall bit rate : 2 006 Kbps
Video

ID : 1

Format : AVC

Format/Info : Advanced Video Codec

Format profile : Main@L3.1

Format settings, CABAC : Yes

Format settings, ReFrames : 4 frames

Codec ID : avc1

Codec ID/Info : Advanced Video Coding

Duration : 2h 11mn

Bit rate mode : Variable

Bit rate : 1 920 Kbps

Width : 1 280 pixels

Height : 694 pixels

Display aspect ratio : 16:9

Frame rate mode : Variable

Frame rate : 23.976 fps

Minimum frame rate : 23.810 fps

Maximum frame rate : 24.390 fps

Resolution : 8 bits

Colorimetry : 4:2:0

Scan type : Progressive

Bits/(Pixel*Frame) : 0.090

Stream size : 1.77 GiB (96%)

Writing library : x264 core 120
Audio

ID : 2

Format : AAC

Format/Info : Advanced Audio Codec

Format version : Version 4

Format profile : LC

Format settings, SBR : No

Codec ID : 40

Duration : 2h 11mn

Bit rate mode : Variable

Bit rate : 79.9 Kbps

Maximum bit rate : 144 Kbps

Channel(s) : 2 channels

Channel positions : L R

Sampling rate : 48.0 KHz

Stream size : 75.3 MiB (4%)


Sample Included: Yes

Screen Shots Included: Yes

Cover Included: Yes

Encoded By: Thunder

Source: BluRay

Playable Devices:
P.C.(my choice would be but not limited to vlc player)

Smartphones

PS3
Respects goes out to all, you know who you are.

Related Torrents

torrent name size files age seed leech

Sharing Widget


Download torrent
1.86 GB
seeders:5
leechers:4
The Five-Year Engagement 2012 720p x264 Mp4 AAC TSRG

Trackers

tracker name Status checked seeders leechers downloads
http://tracker.ccc.de/announce
outdated 16 Oct 2012 - - -
http://tracker.ex.ua/announce
outdated 03 Sep 2012 - - -
udp://tracker.istole.it:80/announce
outdated 03 Sep 2012 - - -
udp://9.rarbg.com:2710/announce
outdated 03 Sep 2012 - - -
http://bigtorrent.org:2710/announce
outdated 03 Sep 2012 - - -
udp://tracker.publicbt.com:80/announce
outdated 03 Sep 2012 - - -
http://tracker.istole.it/announce
outdated 03 Sep 2012 - - -
udp://tracker.openbittorrent.com:80/announce
outdated 03 Sep 2012 - - -
udp://tracker.ccc.de:80/announce
deleted 03 Sep 2012 - - -
http://tracker.publicbt.com/announce
deleted 03 Sep 2012 - - -
ĀµTorrent compatible trackers list

Locations

name
ExtraTorrent
Torrent hash: 5FC255573A8EDC37F02086C404BAF9FED2F7E335

All Comments

audio
0/10
video
0/10
please, leave only comments related to that torrent
or sign-in
Report a bug