The Devils Rejects 2005 DVDRip Xvid BigPerm LKRG

seeders: 4
leechers: 1
Added on Jul 18, 2010 in Movies
Torrent verified. Downloaded 10 times.

The Devils Rejects 2005 DVDRip Xvid BigPerm LKRG (Size: 1.13 GB)
  TDRLKRG.avi 1.13 GB
  Downloaded from ExtraTorrent.com.txt 212 bytes

Description






Plot:

In Ruggsville, Texas, the police under the command of Sheriff John Quincy Wydell attack the house of the sadistic serial killers Firefly family (a.k.a. The Devil\'s Reject) and they arrest mother Firefly, but Otis B. Driftwood and Baby Firefly escape from the siege. Tiny is wandering nearby the house and also escapes. Otis and Baby call their patriarch, the mad clown Captain Spaulding and they schedule to reunite at an isolated motel in the desert. When Otis and Baby arrive, they kidnap two families of singers, using sadism and violence against the harmless persons. Meanwhile, Sheriff Wydell promises to capture and kill the runaways, seeking revenge for the death of his brother, the Deputy George Wydell.

Cast
Cast:

Sid Haig.......................Captain Spaulding
Bill Moseley...................Otis
Sheri Moon Zombie..............Baby
William Forsythe...............Sheriff Wydell
Ken Foree......................Charlie Altamont
Matthew McGrory................Tiny
Leslie Easterbrook.............Mother Firefly
Geoffrey Lewis.................Roy Sullivan
Priscilla Barnes...............Gloria Sullivan
Dave Sheridan..................Officer Ray Dobson
Kate Norby.....................Wendy Banjo
Lew Temple.....................Adam Banjo
Danny Trejo....................Rondo
Dallas Page....................Billy Ray Snapper

General Info
General:

Complete name : The Devils Rejects 2005 DVDRip Xvid BigPerm LKRG\\TDRLKRG.avi
Format : AVI
Format/Info : Audio Video Interleave
Format profile : OpenDML
File size : 1.13 GiB
Duration : 1h 50mn
Overall bit rate : 1 463 Kbps

Video:

ID : 0
Format : MPEG-4 Visual
Format profile : Advanced Simple@L5
Format settings, BVOP : Yes
Format settings, QPel : No
Format settings, GMC : No warppoints
Format settings, Matrix : Default (H.263)
Codec ID : XVID
Codec ID/Hint : XviD
Duration : 1h 50mn
Bit rate : 1 009 Kbps
Width : 700 pixels
Height : 392 pixels
Display aspect ratio : 16:9
Frame rate : 23.976 fps
Resolution : 8 bits
Colorimetry : 4:2:0
Scan type : Progressive
Bits/(Pixel*Frame) : 0.153
Stream size : 800 MiB (69%)
Writing library : XviD 1.2.1 (UTC 2008-12-04)

Audio
ID : 1
Format : AC-3
Format/Info : Audio Coding 3
Codec ID : 2000
Duration : 1h 50mn
Bit rate mode : Constant
Bit rate : 448 Kbps
Channel(s) : 6 channels
Channel positions : Front: L C R, Side: L R, LFE
Sampling rate : 48.0 KHz
Resolution : 16 bits
Video delay : 42ms
Stream size : 355 MiB (31%)
Alignment : Split accross interleaves
Language : English


Screens





Sharing Widget


Download torrent
1.13 GB
seeders:4
leechers:1
The Devils Rejects 2005 DVDRip Xvid BigPerm LKRG

Trackers

tracker name Status checked seeders leechers downloads
udp://tracker.openbittorrent.com:80/announce
outdated 24 Jan 2014 - - -
udp://tracker.publicbt.com:80/announce
outdated 24 Jan 2014 - - -
http://photodiode.mine.nu/announce
outdated 28 Sep 2013 - - -
http://10.rarbg.com/announce
private 28 Sep 2013 - - -
http://tracker.openbittorrent.com/announce
outdated 28 Sep 2013 - - -
http://tracker.torrentparty.com/announce
outdated 28 Sep 2013 - - -
http://pow7.com/announce
outdated 28 Sep 2013 - - -
http://exodus.1337x.org/announce
outdated 28 Sep 2013 - - -
http://genesis.1337x.org:1337/announce
outdated 28 Sep 2013 - - -
http://tracker.publicbt.com/announce
deleted 28 Sep 2013 - - -
http://tracker.bitreactor.to:2710/announce
private 18 Jul 2010 - - -
µTorrent compatible trackers list

Locations

name
ExtraTorrent
1337x
Limetorrents
Fenopy
Torrent hash: efb8c2f6999b46707f0d71897678413f99255973

All Comments

audio
9/10
video
9/10
please, leave only comments related to that torrent
or sign-in
0
skruzloose782 • 01 May 2013, 23:45
torrent downloaded
Show comment
audio: 9video: 9
all good..thanx
0
metequila5021 • 19 May 2012, 01:39
torrent downloaded
Show comment
audio: 10video: 10
thanks
0
ausy46.69K • 08 May 2012, 14:44
torrent downloaded
Show comment
audio: 9video: 9
nice quality great movie
0
jamiekalisperis41 • 08 March 2012, 14:42
torrent downloaded
Show comment
audio: 10video: 10
Love the Great Video and Audio Perfect
0
math201i34 • 10 November 2011, 11:22
torrent downloaded
Show comment
audio: 10video: 10
very nice film and the audio and video quality is very good
0
Sabac353 • 01 November 2011, 06:06 Show comment
audio: 10video: 10
Good Quality Great Movie Thanks for the UL
0
champus1772 • 21 October 2011, 11:38
torrent downloaded
Show comment
audio: 9video: 9
Excellent A/V Many Thanks
0
ilikestarz125 • 30 August 2011, 01:13
torrent downloaded
Show comment
audio: 10video: 10
Great movie from an amazing artist!
0
Eric The Viking204 • 20 August 2011, 17:32
torrent downloaded
Show comment
audio: 8video: 10
0
Aficionado1682 • 07 August 2011, 19:30
torrent downloaded
Show comment
audio: 10video: 10
Great Copy!
Thx 4 Sharing
Show More

User Opinions

Report a bug