The.Devils.in.the.Details.2013 BRRip XViD juggs

seeders: 26
leechers: 7
Added on Mar 5, 2013 by juggs305.69K in Movies
Torrent verified. Downloaded 61 times.

Available in versions: 1080p720pBDRipHDRiPDVDDVDRip
The.Devils.in.the.Details.2013 BRRip XViD juggs (Size: 710.92 MB)
  The.Devils.in.the.Details.2013 BRRip XViD juggs.avi 701.35 MB
  Torrent downloaded from extratorrent.com.txt 339 bytes
  sample.avi 9.58 MB

Description

image

Source : LCHD

http://www.imdb.com/title/tt2137359/


Format : AVI
Format/Info : Audio Video Interleave
File size : 701 MiB
Duration : 1h 40mn
Overall bit rate : 978 Kbps
Writing library : VirtualDub build 32842/release

Video
ID : 0
Format : MPEG-4 Visual
Format profile : Advanced Simple@L5
Format settings, BVOP : 4
Format settings, QPel : No
Format settings, GMC : No warppoints
Format settings, Matrix : Default (H.263)
Muxing mode : Packed bitstream
Codec ID : XVID
Codec ID/Hint : XviD
Duration : 1h 40mn
Bit rate : 840 Kbps
Width : 640 pixels
Height : 256 pixels
Display aspect ratio : 2.500
Frame rate : 23.976 fps
Color space : YUV
Chroma subsampling : 4:2:0
Bit depth : 8 bits
Scan type : Progressive
Compression mode : Lossy
Bits/(Pixel*Frame) : 0.214
Stream size : 603 MiB (86%)
Writing library : XviD 64

Audio
ID : 1
Format : MPEG Audio
Format version : Version 1
Format profile : Layer 3
Codec ID : 55
Codec ID/Hint : MP3
Duration : 1h 40mn
Bit rate mode : Constant
Bit rate : 128 Kbps
Channel(s) : 2 channels
Sampling rate : 44.1 KHz
Compression mode : Lossy
Stream size : 91.8 MiB (13%)
Alignment : Split accross interleaves
Interleave, duration : 42 ms (1.00 video frame)
Interleave, preload duration : 500 ms
Writing library : LAME3.99r
Encoding settings : -m s -V 4 -q 3 -lowpass 17 -b 128


Plot
7 minutes from now in Nogales, Arizona. Thomas Conrad's life will forever change when he gets caught up in a Mexican cartels poetic game of drug mule chess.


image
image
image
image

Sharing Widget


Download torrent
710.92 MB
seeders:26
leechers:7
The.Devils.in.the.Details.2013 BRRip XViD juggs

Trackers

tracker name Status checked seeders leechers downloads
udp://9.rarbg.com:2710/announce
outdated 17 Nov 2013 - - -
udp://tracker.openbittorrent.com:80/announce
outdated 17 Nov 2013 - - -
udp://tracker.publicbt.com:80/announce
outdated 17 Nov 2013 - - -
udp://tracker.istole.it:80/announce
outdated 12 Aug 2013 - - -
http://exodus.desync.com:6969/announce
blocked 12 Aug 2013 - - -
http://tracker.coppersurfer.tk:6969/announce
deleted 17 Nov 2013 - - -
udp://fr33dom.h33t.com:3310/announce
deleted 12 Aug 2013 - - -
http://fr33dom.h33t.com:3310/announce
deleted 12 Aug 2013 - - -
udp://fr33domtracker.h33t.com:3310/announce
deleted 12 Aug 2013 - - -
udp://ipv4.tracker.harry.lu:80/announce
pending 12 Aug 2013 70 8 10
µTorrent compatible trackers list

Locations

name
KickassTorrents
Torrent hash: 86DDE1EA8907B7ECEA736D90E0FDFC09ED7C6B2B

Top Comments

6
anonymous • 07 Mar 2013, 00:07
audio: 9video: 9
LOL you people with Playstation drama. I watch this on my microwave without problems.
6
anonymous • 07 Mar 2013, 04:11
All these issues with PS3 such, I play it on my Atari with out any issues, and my neighbor uses his Commadore 64 no problems there either. Oh and yes the movie is worth watching.
4
anonymous • 07 Mar 2013, 05:26
Using all upper case is shouting!

All Comments

audio
8/10
video
8/10
please, leave only comments related to that torrent
or sign-in
0
bkat331671 • 19 November 2013, 00:35
torrent downloaded
Show comment
audio: 9video: 9
Great Copy Fast Download, Thanks Up-loader & Seeders! V9 A9
0
anonymous • 16 July 2013, 14:20 Show comment
sound and quality good, acting and sequences piss poor, absolute crap movie. Storyline wrong doesn't make sense DON'T WASTE YOUR TIME
0
ajaxen12.4K • 07 May 2013, 22:46
torrent downloaded
Show comment
thank you
0
TimeBandits53.86K • 21 April 2013, 13:38
torrent downloaded
Show comment
audio: 9video: 9
Good download, thanks for sharing.biggrin
0
toot8657011 • 05 April 2013, 00:01
torrent downloaded
Show comment
audio: 9video: 9
thanks uploader
0
Biliegh3254 • 03 April 2013, 20:05
torrent downloaded
Show comment
audio: 9video: 9
0
terrayusa1345 • 02 April 2013, 18:39
torrent downloaded
Show comment
audio: 9video: 9
TY! Agree with boring.
0
SmokinJEDI1587 • 30 March 2013, 09:29
torrent downloaded
Show comment
audio: 8video: 9
good job...thanks
1
Besharm2543 • 28 March 2013, 13:36
torrent downloaded
Show comment
audio: 9video: 9
Boring movie.
Show More

User Opinions

barchetta5697, Modearham3113, terrayusa1345, mess2d1289, Mallyda11167, nori666994, cookie1472, chinsue424, kameln10396, Rage84337 ... And 312 more
hammyburger3962, coppieking3926, champion0073394, 333CyberWolf2627, Besharm2543, jasko1121269, jojocagallo77349, HellSpawm246, filipkawka100, aliuminati81 ... And 14 more
Report a bug