The Da Vinci Code 2006[DvdRip]Dual Audio[Eng-Hindi]

seeders: 4
leechers: 5
Added on May 8, 2010 in Movies
Torrent verified. Downloaded 80 times.

Summary:
A murder inside the Louvre and clues in Da Vinci paintings lead to the discovery of a religious mystery protected by a secret society for two thousand years -- which could shake the foundations of Christianity.
Submitted by thePiratePimp46.86K
report summary
Available in versions: 1080p720pBDRipHDRiPDVDDVDRipx264
The Da Vinci Code 2006[DvdRip]Dual Audio[Eng-Hindi] (Size: 925.51 MB)
  The.Da.Vinci.Code.2006[DvdRip]Dual.Audio[Eng-Hindi].mkv 925.51 MB

Description

INFO:

Title..................: The Da Vinci Code
Year...................: 2006
Genre..................: Mystery | Thriller
Directer...............: Ron Howard
Run time...............: 2h 22mn 43sec
size ..................: 925 MB
Languages..............: English.Hindi

___________________________________________________________________________

Video

Format : MKV
Duration : 2h 22mn 43sec
Display aspect ratio : 16:9
Resolution : 524*212
Stream size : 693 MiB
_______________________________________________________________________________


Audio #1 :English
ID : 1
Format : MPEG 1 Layer 3
Duration : 2h 22mn 43 sec
Bit rate mode : Constant
Bit rate : 96 Kbps
Channel(s) : 2 channels
Channel positions : Front: L R
Sampling rate : 48.0 KHz
Stream size : 98 MiB

____________________________________________________________________________


Audio #2 :Hindi
ID : 2
Format : MPEG 1 Layer 3
Duration : 2h 22mn 43sec
Bit rate mode : Constant
Bit rate : 128 Kbps
Channel(s) : 2 channels
Channel positions : Front: L R
Sampling rate : 44100 Hz
Stream size : 130 MiB
__________________________________________________________________________



Seeding at 2:00 AM ISt - 8:00 AM ISt
Please wait during seeding
Plz seed after download
Thankyou...


http://img682.imageshack.us/img682/91/68753964.jpg
http://img228.imageshack.us/img228/1290/61792529.jpg
http://img217.imageshack.us/img217/6991/86592228.jpg
http://img30.imageshack.us/img30/5218/54709692.jpg

Sharing Widget


Download torrent
925.51 MB
seeders:4
leechers:5
The Da Vinci Code 2006[DvdRip]Dual Audio[Eng-Hindi]

Trackers

tracker name Status checked seeders leechers downloads
udp://tracker.istole.it:80/announce
outdated 13 Aug 2014 - - -
udp://tracker.publicbt.com:80/announce
outdated 13 Aug 2014 - - -
udp://tracker.openbittorrent.com:80/announce
outdated 13 Aug 2014 - - -
http://tracker.ex.ua/announce
outdated 13 Aug 2014 - - -
http://pow7.com/announce
outdated 27 Aug 2013 - - -
http://genesis.1337x.org:1337/announce
outdated 27 Aug 2013 - - -
http://tracker.istole.it/announce
outdated 27 Aug 2013 - - -
http://tracker.openbittorrent.com/announce
outdated 27 Aug 2013 - - -
http://nemesis.1337x.org/announce
outdated 27 Aug 2013 - - -
http://photodiode.mine.nu/announce
outdated 27 Aug 2013 - - -
http://10.rarbg.com/announce
private 27 Aug 2013 - - -
http://11.rarbg.com/announce
private 27 Aug 2013 - - -
http://tracker.torrentbay.to:6969/announce
outdated 27 Aug 2013 - - -
http://tracker.publicbt.com/announce
deleted 27 Aug 2013 - - -
http://9.rarbg.com:2710/announce
private 08 May 2010 - - -
http://tracker.bitreactor.to:2710/announce
private 08 May 2010 - - -
ĀµTorrent compatible trackers list

Locations

name
ThePirateBay
Torrent hash: dff14659f1087b9a1bb4dd5c124d0e06372fbfbf

All Comments

audio
9/10
video
8/10
please, leave only comments related to that torrent
or sign-in
0
tauseef-it2426 • 13 August 2014, 11:39
torrent downloaded
Show comment
audio: 9video: 8
Great Rip, Video 720P, Dual Language English 10/9 & Hindi 10/8, IMDb rating 6.5, Good movie, Now Seeding... thanks up-loader.smile
0
PankajCC1059 • 19 June 2014, 07:09
torrent downloaded
Show comment
audio: 9video: 8
good
0
SahilDS1276 • 15 September 2013, 06:11
torrent downloaded
Show comment
audio: 9video: 7
Thanks.
0
anonymous • 13 July 2013, 09:44 Show comment
awesome
0
prem9569198 • 21 April 2013, 00:24
torrent downloaded
Show comment
audio: 8video: 9
nice movie n print
0
rajat63933959 • 17 April 2013, 04:03
torrent downloaded
Show comment
audio: 8video: 7
0
tapangoswami364 • 21 December 2012, 16:35
torrent downloaded
Show comment
audio: 8video: 7
my favorite movie...<3
0
anonymous • 17 September 2012, 06:48 Show comment
audio: 7video: 7
Not clear print... Blurred image...
0
ishant1001385 • 20 August 2012, 11:18
torrent downloaded
Show comment
audio: 8video: 6
not good
Show More

User Opinions

Aaroh2396, IDontHave12393, master_mind1367, Pratik12122748, essar13478, Ayreds225, OPJ175, maxmk115, hmonani71, rony888646 ... And 30 more
ishant1001385, masoomshah367, Dr.Lim179, ozma33113, bitu_moto64, sarvesh11141, dmello71
Report a bug