The Crown and the Dragon 2013 720p BRRip x264 MP4 AAC-CC

seeders: 5
leechers: 2
Added on Jul 30, 2013 in Movies > Highres Movies
Torrent verified. Downloaded 22 times.

Available in versions: 1080p720pBlu-RayBDRipHDRiPDVDRipx264
The Crown and the Dragon 2013 720p BRRip x264 MP4 AAC-CC (Size: 2.79 GB)
  Sample
  Screens-Info
  Subs
  The Crown and the Dragon 2013 720p BRRip x264 MP4 AAC-CC.mp4 2.75 GB
  Torrent Downloaded from digtorrent.org.txt 184 bytes
  Torrent downloaded from PublicHD.EU.txt 89 bytes
  Torrent downloaded from SilverTorrent.org.txt 86 bytes
  Torrent downloaded from extratorrent.com.txt 83 bytes
  Torrent_downloaded_from_AhaShare.com.txt 63 bytes
  Torrent Downloaded From Torrentmafia.org.txt 57 bytes
  Torrent Downloaded from ExtremlymTorrents.com.txt 56 bytes
  Torrent_downloaded_from pimp4003-torrents.me.txt 52 bytes
  Torrent downloaded from btscene.eu.txt 47 bytes
  Torrent Downloaded from flashtorrent.tk.txt 46 bytes
  Torrent downloaded from PublicHash.com.txt 46 bytes
  Torrent_downloaded_from divxhunt.me.txt 43 bytes
  Torrent downloaded from Piratebox.com.txt 41 bytes
  Torrent downloaded from www.p2pdl.com.txt 37 bytes
  torrent downloaded from H33T.com.txt 32 bytes

Description

http://www.imdb.com/title/tt1913178/

Source: The.Crown.and.the.Dragon.2013.720p.BluRay.x264-NOSCREENS Thanks!

Subs: Arabic, Brazilian, Dutch, English, Farsi-Persian, Greek, Indonesian, Portuguese, Vietnamese.

Sample and Screens included.

General
Complete name : The Crown and the Dragon 2013 720p BRRip x264 MP4 AAC-CC.mp4
Format : MPEG-4
Format profile : Base Media
Codec ID : isom
File size : 2.75 GiB
Duration : 1h 31mn
Overall bit rate mode : Variable
Overall bit rate : 4 302 Kbps
Encoded date : UTC 2013-07-29 14:39:38
Tagged date : UTC 2013-07-29 14:39:38
Writing application : Yamb 2.1.0.0

Video
ID : 1
Format : AVC
Format/Info : Advanced Video Codec
Format profile : High@L4.1
Format settings, CABAC : Yes
Format settings, ReFrames : 5 frames
Codec ID : avc1
Codec ID/Info : Advanced Video Coding
Duration : 1h 31mn
Bit rate : 3 992 Kbps
Maximum bit rate : 48.5 Mbps
Width : 1 280 pixels
Height : 720 pixels
Display aspect ratio : 16:9
Frame rate mode : Variable
Frame rate : 23.976 fps
Minimum frame rate : 19.048 fps
Maximum frame rate : 24.390 fps
Color space : YUV
Chroma subsampling : 4:2:0
Bit depth : 8 bits
Scan type : Progressive
Bits/(Pixel*Frame) : 0.181
Stream size : 2.50 GiB (91%)
Writing library : x264 core 112
Encoding settings : cabac=1 // deblock=1:0:0 / analyse=0x3:0x113 / me=hex / subme=7 / psy=1 / psy_rd=1.00:0.00 // me_range=16 / chroma_me=1 / trellis=1 / 8x8dct=1 / cqm=0 / deadzone=21,11 / fast_pskip=1 / chroma_qp_offset=-2 / threads=3 / sliced_threads=0 / nr=0 / decimate=1 / interlaced=0 / constrained_intra=0 / bframes=5 / b_pyramid=2 / b_adapt=2 / b_bias=0 / direct=1 / weightb=1 / open_gop=0 / weightp=2 / keyint=240 / keyint_min=23 / scenecut=40 / intra_refresh=0 / rc_lookahead=50 / rc=abr / mbtree=1 / bitrate=3992 / ratetol=1.0 / qcomp=0.60 / qpmin=3 / qpmax=51 / qpstep=4 / ip_ratio=1.40 / aq=1:1.00
Encoded date : UTC 2013-07-29 21:09:59
Tagged date : UTC 2013-07-29 14:43:14
Color primaries : BT.709
Transfer characteristics : BT.709
Matrix coefficients : BT.709

Audio
ID : 2
Format : AAC
Format/Info : Advanced Audio Codec
Format profile : LC
Codec ID : 40
Duration : 1h 31mn
Bit rate mode : Variable
Bit rate : 384 Kbps
Maximum bit rate : 716 Kbps
Channel(s) : 6 channels
Channel positions : Front: L C R, Side: L R, LFE
Sampling rate : 48.0 KHz
Compression mode : Lossy
Delay relative to video : 83ms
Stream size : 252 MiB (9%)
Language : English
Encoded date : UTC 2013-07-29 14:42:25
Tagged date : UTC 2013-07-29 14:43:14

Enjoy...

Related Torrents

torrent name size files age seed leech

Sharing Widget


Download torrent
2.79 GB
seeders:5
leechers:2
The Crown and the Dragon 2013 720p BRRip x264 MP4 AAC-CC

Trackers

tracker name Status checked seeders leechers downloads
udp://tracker.openbittorrent.com:80/announce
outdated 24 Nov 2013 - - -
udp://open.demonii.com:1337/announce
outdated 24 Nov 2013 - - -
udp://tracker.publicbt.com:80/announce
outdated 24 Nov 2013 - - -
udp://tracker.istole.it:80/announce
outdated 24 Nov 2013 - - -
udp://9.rarbg.com:2710/announce
outdated 24 Nov 2013 - - -
http://exodus.desync.com:6969/announce
blocked 03 Sep 2013 - - -
udp://fr33domtracker.h33t.com:3310/announce
deleted 03 Sep 2013 - - -
http://fr33dom.h33t.com:3310/announce
deleted 03 Sep 2013 - - -
http://pimp4003-torrents.me:2710/announce.php
pending 03 Sep 2013 0 0 0
µTorrent compatible trackers list

Locations

name
ThePirateBay
Torrent hash: A59915C70D95AF17ABB1A82CD91C101A30E60E0B

All Comments

audio
0/10
video
0/10
please, leave only comments related to that torrent
or sign-in

User Opinions

Report a bug