The Chronicles of Narnia 3 (2010) DVDRip XviD-MAXSPEED

seeders: 13
leechers: 4
Added on Mar 10, 2011 by piratepedia692.89K in Movies
Torrent verified. Downloaded 10 times.

Summary:
Lucy and Edmund Pevensie return to Narnia with their cousin Eustace where they meet up with Prince Caspian for a trip across the sea aboard the royal ship The Dawn Treader. Along the way they encounter dragons, dwarves, merfolk, and a band of lost warriors before reaching the edge of the world.
Submitted by 5fingerdis47.06K
report summary
The Chronicles of Narnia 3 (2010) DVDRip XviD-MAXSPEED (Size: 1.59 GB)
  The Chronicles of Narnia The Voyage of the Dawn Treader (2010) DVDRip XviD-MAXSPEED... 1.59 GB
  sample.avi 7.75 MB
  screencaps.jpg 193.78 KB
  The Chronicles of Narnia The Voyage of the Dawn Treader (2010) DVDRip XviD-MAXSPEED.nfo 2.72 KB
  Torrent downloaded from Demonoid.me.txt 46 bytes
  Torrent downloaded from extratorrent.com.txt 40 bytes
  Torrent downloaded from Rarbg.com.txt 33 bytes
  torrent downloaded from H33T.com.txt 32 bytes

Description

http://www.torentz.3xforum.ro/post/1983/1/The_Chronicles_of_Narnia_3_2010_DVDRip_XviD-MAXSPEED/
.
image
.
Screens:
.
image
image
image
image
.
Alternative:
.
http://www.postimg.com/image/31000/photo-30008.jpg
http://www.postimg.com/image/31000/photo-30009.jpg
http://www.postimg.com/image/31000/photo-30010.jpg
http://www.postimg.com/image/31000/photo-30011.jpg
.
ScreenCaps:
.
image
.
The Chronicles of Narnia 3 (2010) DVDRip XviD-MAXSPEED
aka The Chronicles of Narnia The Voyage of the Dawn Treader (2010) DVDRip XviD-MAXSPEED
Format : AVI
Format/Info : Audio Video Interleave
Format profile : OpenDML
File size : 1.59 GiB
Duration : 1h 52mn
Overall bit rate : 2 015 Kbps
Writing application : VirtualDubMod 1.5.10.2 (build 2542/release)
Writing library : VirtualDubMod build 2542/release
Original source form : MAX TORRENTZ
Copyright : SIGISMUNT
Video
ID : 0
Format : MPEG-4 Visual
Format profile : AdvancedSimple@L5
Format settings, BVOP : Yes
Format settings, QPel : No
Format settings, GMC : No warppoints
Format settings, Matrix : Custom
Codec ID : XVID
Codec ID/Hint : XviD
Duration : 1h 52mn
Bit rate : 1 819 Kbps
Width : 720 pixels
Height : 400 pixels
Display aspect ratio : 16:9
Frame rate : 23.976 fps
Resolution : 24 bits
Colorimetry : 4:2:0
Scan type : Progressive
Bits/(Pixel*Frame) : 0.263
Stream size : 1.43 GiB (90%)
Writing library : XviD 58
Audio
ID : 1
Format : MPEG Audio
Format version : Version 1
Format profile : Layer 3
Codec ID : 55
Codec ID/Hint : MP3
Duration : 1h 52mn
Bit rate mode : Constant
Bit rate : 192 Kbps
Channel(s) : 2 channels
Sampling rate : 48.0 KHz
Resolution : 16 bits
Stream size : 155 MiB (10%)
Alignment : Aligned on interleaves
Interleave, duration : 452 ms (10.84 video frames)
Interleave, preload duration : 216 ms
Writing library : LAME3.98.2
 
Source:DVD (perfect a/v/sync quality with additional 300% volume,sample included)
How To Get Your Maxspeed (uTorrent)
Torrent Client - Preferences - Bandwidth - Number of connections - Set aprox. 500 for each 
Torrent Client - Preferences - BiTorrent - Protocol Encryption - Forced
Bandwidth Allocation - High (Set download/upload limit - Unlimited)
Stop Other Active Torrents - Start downloading and wait for connections.
Enjoy and Seed for at least 1:1 ratio. Don't forget to say thanks/leave reviews.
Before downloading you should check/google search sample "release name""sample".
Greets to all actual/future p2p/scene QUALITY groups and affiliate websites.
Don't trust IMDb robot or bad ratings,always watch some trailers first.
Ignore stupid comments/fake/mislabeled/no-DVDrips/CAM/TS/RAR uploads.
Please spread this release/torrent to your friends/forums/etc.
If you need translation subs visit some subtitles sites.
Report if you see online streaming or other spam links.
Recommended movie player VLC PLAYER.

Sharing Widget


Download torrent
1.59 GB
seeders:13
leechers:4
The Chronicles of Narnia 3 (2010) DVDRip XviD-MAXSPEED

Trackers

tracker name Status checked seeders leechers downloads
udp://tracker.openbittorrent.com:80/announce
active 23 Oct 2014 7 1 10
udp://tracker.publicbt.com:80/announce
active 23 Oct 2014 13 4 10
udp://tracker.istole.it:80/announce
active 23 Oct 2014 13 4 10
udp://tracker.1337x.org:80/announce
outdated 11 Jul 2013 - - -
http://exodus.desync.com:6969/announce
blocked 11 Jul 2013 - - -
udp://fr33domtracker.h33t.com:3310/announce
deleted 11 Jul 2013 - - -
udp://inferno.demonoid.com:3409/announce
error 11 Jul 2013 - - -
ĀµTorrent compatible trackers list

Locations

name
KickassTorrents
ThePirateBay
Limetorrents
1337x
ExtraTorrent
BTjunkie
BTjunkie
BTjunkie
BTjunkie
BTjunkie
Torrent hash: 2b2a441b8d1c245ce3eea36c46f876b6d8c6c510

Top Comments

9
soutzee105 • 04 Apr 2011, 15:51
torrent downloaded
audio: 10video: 10
good quality good movie fast download
8
vherrr446 • 11 Mar 2011, 16:24
torrent downloaded
audio: 10video: 10
nice copy, thanks !!
6
Mr.Gooner209.63K • 11 Mar 2011, 17:28
torrent downloaded
audio: 10video: 10
mmmmmYeah, ''thats wot im talking about!'' been waiting for a beeter copy!

All Comments

audio
9/10
video
9/10
please, leave only comments related to that torrent
or sign-in
0
film1982881 • 14 September 2013, 16:51
torrent downloaded
Show comment
nice
0
lord_wicked2339 • 07 August 2013, 19:05
torrent downloaded
Show comment
audio: 9video: 9
thx
0
cwchase101455 • 30 June 2013, 19:16
torrent downloaded
Show comment
audio: 9video: 9
great upload and quality!! Thanks.
0
arttart121 • 30 June 2013, 08:36
torrent downloaded
Show comment
audio: 9video: 10
Good quality. Surprisingly strange little film. Reminded me a bit of a David Lynch film. Two very different women form an unusual bond.
0
necrho396 • 18 June 2013, 04:31
torrent downloaded
Show comment
awesome thnx!
0
necrho396 • 18 June 2013, 04:30
torrent downloaded
Show comment
awesome thnx!
0
delmont2696 • 31 May 2013, 10:15
torrent downloaded
Show comment
Thanks
0
cedeify970 • 16 May 2013, 11:07
torrent downloaded
Show comment
audio: 9video: 9
0
anonymous • 14 May 2013, 21:29 Show comment
thanks
Show More

User Opinions

q8djent5394, toxictoadz1243, godslinux975, litefoot925, jonh574, Ehb419, baillieashton204, nirmanblackangel59, xvj0031, suiscidal@yahoo.com11 ... And 1038 more
bobnjeff5663, djlucky2646, WhiteShark81488, SkiT7139, oupapa56, brucem37, nicollesilva20, pedroski13, rrigby19695, GwappCityEnt3 ... And 47 more
Report a bug