The Change Up UNRATED (2011) - DVDRip - Xvid - BRG

seeders: 2
leechers: 7
Added on Oct 31, 2011 in Movies
Torrent verified. Downloaded 0 times.

  • Movie: The Change-Up
  • Detected quality: DVDRip
  • IMDb link: 1488555
  • IMDb rating: 6.4 (38,840 votes)
  • RottenTomatoes: 25% 48%
  • Genre: Comedy
Summary:
Dave is a married man with two kids and a loving wife , and Mitch is a single man who is at the prime of his sexual life. One fateful night while Mitch and Dave are peeing in a fountain when lightning strikes and they switch bodies.
Submitted by thePiratePimp48.37K
report summary
The Change Up UNRATED (2011) - DVDRip - Xvid - BRG (Size: 847.88 MB)
  The Change Up UNRATED (2011) - DVDRip - Xvid - BRG.1.avi 610.54 MB
  The Change Up UNRATED (2011) - DVDRip - Xvid - BRG.2.avi 237.18 MB
  The Change Up UNRATED (2011) - DVDRip - Xvid - BRG.1_preview.jpg 157.45 KB
  Torrent downloaded from extratorrent.com.txt 353 bytes
  Torrent downloaded from brg.horizon-host.com.txt 127 bytes
  Torrent downloaded from 1337x.org.txt 44 bytes

Description





Code:Genre :Comedy Language:EnglishIMDb:http://www.imdb.com/title/tt1488555/PLOT:A comedy in which a married father accidentally switches bodies with his best friend, leading to a series of wildly complex difficulties.Code:Format : AVIFormat/Info : Audio Video InterleaveFile size : 848 MiB Duration : 1h 57mn 52sOverall bit rate : 1 415 KbpsWriting application : VirtualDubMod 1.5.10.2 (build 2540/release)Writing library : VirtualDub build 32842/releaseVideoID : 0Format : MPEG-4 VisualFormat profile : Simple@L3Format settings, BVOP : NoFormat settings, QPel : NoFormat settings, GMC : No warppointsFormat settings, Matrix : Default (H.263)Codec ID : XVIDCodec ID/Hint : XviDDuration : 1h 0mnBit rate : 958 KbpsWidth : 640 pixelsHeight : 272 pixelsDisplay aspect ratio : 2.35:1Frame rate : 23.976 fpsColor space : YUVChroma subsampling : 4:2:0Bit depth : 8 bitsScan type : ProgressiveCompression mode : LossyBits/(Pixel*Frame) : 0.229Stream size : 413 MiB (68%)Writing library : XviD 64AudioID : 1Format : AC-3Format/Info : Audio Coding 3Mode extension : CM (complete main)Codec ID : 2000Duration : 1h 0mnBit rate mode : ConstantBit rate : 448 KbpsChannel(s) : 6 channelsChannel positions : Front: L C R, Side: L R, LFESampling rate : 48.0 KHzBit depth : 16 bitsCompression mode : LossyStream size : 193 MiB (32%)Alignment : Split accross interleavesInterleave, duration : 42 ms (1.00 video frame)Interleave, preload duration : 500 msSource: COCAIN (Thanks)


Greetz to IMAGiNE,Flawl3ss,BDK,Ez,DDR,Sam,absurdity,BHRG,iLLUMiNATi,ViSUALiSE,MiSTERE

Related Torrents

torrent name size files age seed leech

Sharing Widget


Download torrent
847.88 MB
seeders:2
leechers:7
The Change Up UNRATED (2011) - DVDRip - Xvid - BRG

Trackers

tracker name Status checked seeders leechers downloads
http://cpleft.com:2710/announce
outdated 31 Oct 2011 - - -
http://tracker.openbittorrent.com/announce
outdated 31 Oct 2011 - - -
udp://tracker.openbittorrent.com:80/announce
outdated 31 Oct 2011 - - -
udp://tracker.publicbt.com:80/announce
outdated 31 Oct 2011 - - -
udp://tracker.istole.it:80/announce
outdated 31 Oct 2011 - - -
http://tracker.istole.it/announce
outdated 31 Oct 2011 - - -
http://tracker.publicbt.com/announce
deleted 31 Oct 2011 - - -
http://9.rarbg.com:2710/announce
private 31 Oct 2011 - - -
http://brg.horizon-host.com/announce.php
pending 31 Oct 2011 2 7 0
ĀµTorrent compatible trackers list

Locations

name
ExtraTorrent
Limetorrents
Torrent hash: 43fb200bb78bfcb73d761fa17e7b840d9ded1bbf

All Comments

audio
0/10
video
0/10
please, leave only comments related to that torrent
or sign-in
Report a bug