The Bridge 2011 Miniserie 5DVDrip Swedish Danish Klam

seeders: 9
leechers: 2
Added on Nov 30, 2011 in Movies
Torrent verified. Downloaded 10 times.

Available in versions: DVD
The Bridge 2011 Miniserie 5DVDrip Swedish Danish Klam (Size: 6.13 GB)
  Cover
  Part10.avi 663.42 MB
  PART02.avi 656.26 MB
  part09.avi 654.66 MB
  part07.avi 648.14 MB
  PART03.avi 639.07 MB
  part04.avi 625.52 MB
  PART01.avi 614.35 MB
  part08.avi 607.3 MB
  part06.avi 592.62 MB
  part05.avi 568.11 MB
  www.Film-Test.nl.jpg 35.44 KB
  New Dutch Site.txt 117 bytes
  Torrent downloaded from Demonoid.com.txt 47 bytes

Description

Zweedse Thriller
Mini Serie 10 afleveringen

Twee landen...een brug...een moord...

Wanneer op de Oresundbrug tussen Zweden en Denemarken een lijk gevonden wordt, dwingt deze spectaculaire moord de Zweedse en Deense politie tot een nauwe samenwerking. Gruwelijke gebeurtenissen blijven elkaar opvolgen...
De Deense agent Martin Rodhe(Kim Bodnia - The Killing, Those Who Kill) en de Zweedse Saga Nor'en (Sofia Helin - Beck) gaan de uitdaging met frisse tegenzin aan. Een uur lang onverwachte wendingen die leiden tot ultieme chaos in de noordelijke landen. En dit is nog maar het begin.

Swedish Thriller,
Two Country's ... A Bridge and A murder....

------------------------ Dutch Friends ------------------------
---------------------------------------------------------------
- Bezoek ook eens mijn vrienden op: http://www.Film-Test.nl --
----- voor mijn Nederlandse Sync. ondertitels ---- en meer ----
------- http://www.Film-Test.nl ---- voor Films en meer -------
---------------------------------------------------------------

General:

Complete name : The Bridge\Part01.avi
Format : AVI
Format/Info : Audio Video Interleave
File size : 614 MiB
Duration : 57mn 31s
Overall bit rate : 1 493 Kbps

Video:

Format : MPEG-4 Visual
Format profile : Simple@L3
Format settings, BVOP : No
Format settings, QPel : No
Format settings, GMC : No warppoints
Format settings, Matrix : Default (H.263)
Codec ID : XVID
Codec ID/Hint : XviD
Duration : 57mn 31s
Bit rate : 1 034 Kbps
Width : 704 pixels
Height : 396 pixels
Display aspect ratio : 16:9
Frame rate : 25.000 fps
Color space : YUV
Chroma subsampling : 4:2:0
Bit depth : 8 bits
Scan type : Progressive
Compression mode : Lossy
Bits/(Pixel*Frame) : 0.148
Stream size : 426 MiB (69%)
Writing library : XviD 1.1.2 (UTC 2006-11-01)

Audio:

Format : AC-3
Format/Info : Audio Coding 3
Mode extension : CM (complete main)
Codec ID : 2000
Duration : 57mn 31s
Bit rate mode : Constant
Bit rate : 448 Kbps
Channel(s) : 6 channels
Channel positions : Front: L C R, Side: L R, LFE
Sampling rate : 48.0 KHz
Bit depth : 16 bits
Compression mode : Lossy
Stream size : 184 MiB (30%)
Alignment : Aligned on interleaves
Interleave, duration : 32 ms (0.80 video frame)
Interleave, preload duration : 416 ms

Sharing Widget


Download torrent
6.13 GB
seeders:9
leechers:2
The Bridge 2011 Miniserie 5DVDrip Swedish Danish Klam

Trackers

tracker name Status checked seeders leechers downloads
udp://tracker.publicbt.com:80/announce
outdated 07 Oct 2013 - - -
udp://tracker.openbittorrent.com:80/announce
outdated 07 Oct 2013 - - -
http://tracker.openbittorrent.com/announce
outdated 23 Jul 2013 - - -
udp://tracker.ex.ua:80/announce
outdated 23 Jul 2013 - - -
http://pow7.com/announce
outdated 23 Jul 2013 - - -
http://10.rarbg.com/announce
private 23 Jul 2013 - - -
http://inferno.demonoid.me:3411/announce
outdated 23 Jul 2013 - - -
http://tracker.torrentbay.to:6969/announce
outdated 23 Jul 2013 - - -
http://tracker.publicbt.com/announce
deleted 23 Jul 2013 - - -
http://torrentbay.to:6969/announce
error 30 Nov 2011 - - -
http://9.rarbg.com:2710/announce
private 30 Nov 2011 - - -
µTorrent compatible trackers list

Locations

name
ThePirateBay
Torrent hash: 019abcf3de124c5a9ee243774bc36867b2c31cfa

All Comments

audio
9/10
video
9/10
please, leave only comments related to that torrent
or sign-in
0
DonkGRFC77 • 31 July 2012, 15:31 Show comment
Brilliant series, heres a torrent with English Subs...

https://kat.ph/the-bridge-bron-broen-t6543632.html
0
anonymous • 19 June 2012, 11:46 Show comment
audio: 9video: 9
Brilliant torrent, thanks uploader.
0
CountBrass1155 • 21 May 2012, 14:54
torrent downloaded
Show comment
audio: 9video: 9
great stuff, thx for putting up. Thanks also to the dude for the subtitle link.
0
anonymous • 24 April 2012, 18:04 Show comment
anyone have this with english subtitles please?
0
anonymous • 29 April 2012, 18:27 Show comment
you can get them here: http://www.podnapisi.net/en/bron-broen-2011-subtitles-p1437323 i'm not sure about other players but on vlc click video>subtitles track then select the file of the right episode! (these subtitles are in general very good, but grammer is not 100% accurate, MILES better then some of the incomprehensible shit i've seen for other foreign language torrents, though! let me know if you enjoy the series- i'm about half way through and GRIPPED!
0
anonymous • 19 June 2012, 11:37 Show comment
Many thanks for the link anonymous - if I can get it to work then anyone can! Just part way into the series and already completely hooked!

User Opinions

Report a bug