The Biggest Loser The Workout Weight Loss Yoga 2008 DVDRip XviD

seeders: 74
leechers: 11
Added on Feb 3, 2012 in Movies
Torrent verified. Downloaded 10 times.

Summary:
No summary yet
Available in versions: DVDRip
The Biggest Loser The Workout Weight Loss Yoga 2008 DVDRip XviD (Size: 705.78 MB)
  Sample
  READ this before playing the Movie.txt 473 bytes
  the.biggest.loser.the.workout.weight.loss.yoga.2008.dvdrip.xvid-fico.avi 695.66 MB
  the.biggest.loser.the.workout.weight.loss.yoga.2008.dvdrip.xvid-fico.nfo 6.51 KB
  www.Torrenting.com.txt 473 bytes

Description

.

http://www.torrenting.com : Once & For all ;)


www . Torrenting . Com

(((((((((((((= Enjoy No RAR releases =))))))))))))))))))))


...................................NFO:....................................

.





CoaX!<CPH>




Team FiCO <Final Coalition> 2k8 Presents:


The.Biggest.Loser.The.Workout.Weight.Loss.Yoga.2008.DVDRip.XviD-FiCO

The.Biggest.Loser.The.Workout.Weight.Loss.Yoga.2008.DVDRip.XviD-FiCO
Subtitles: None
Date: 2011.12

Genre: Workout
Plot: Replicate the extraordinary weight-loss results of the inspiring
contestants from NBC's "The Biggest Loser" with this yoga-based home
workout hosted by one of the show's trainers, Bob Harper. In Level 1,
you'll learn to activate your core and elongate your torso and limbs
with a collection of fundamental yoga poses. In Levels 2 and 3, Harper
turns on the burn with more intensive fat-fighting, stamina-building moves.

Stats:
General
Format : AVI
Format/Info : Audio Video Interleave
File size : 696 MiB
Duration : 1h 2mn
Overall bit rate : 1 560 Kbps
Writing application : VirtualDubMod 1.5.10.2 (build 2542/release)
Writing library : VirtualDubMod build 2542/release

Video
ID : 0
Format : MPEG-4 Visual
Format profile : Advanced Simple@L5
Format settings, BVOP : Yes
Format settings, QPel : No
Format settings, GMC : No warppoints
Format settings, Matrix : Default (H.263)
Codec ID : XVID
Codec ID/Hint : XviD
Duration : 1h 2mn
Bit rate : 1 356 Kbps
Width : 608 pixels
Height : 448 pixels
Display aspect ratio : 4:3
Frame rate : 29.970 fps
Resolution : 8 bits
Colorimetry : 4:2:0
Scan type : Progressive
Bits/(Pixel*Frame) : 0.166
Stream size : 605 MiB (87%)
Writing library : XviD 61

Audio
ID : 1
Format : AC-3
Format/Info : Audio Coding 3
Format_Settings_ModeExtension : CM (complete main)
Codec ID : 2000
Duration : 1h 2mn
Bit rate mode : Constant
Bit rate : 192 Kbps
Channel(s) : 2 channels
Channel positions : Front: L R
Sampling rate : 48.0 KHz
Stream size : 85.6 MiB (12%)
Alignment : Split accross interleaves
Interleave, duration : 33 ms (1.00 video frame)
Interleave, preload duration : 500 ms

Release notes:
enjoy!





Greetz from Team FiCO:



BLooDWeiSeR,CULTXviD,SiCK,DoNE,LAP,TH30R1STS

WinBeta, DvF, WASTE, BERC, KALEVALA, Jiggly

















you know where to find us...

NFO By: CoaXCable/CoolPHat <#CPH>

Related Torrents

torrent name size files age seed leech

Sharing Widget


Download torrent
705.78 MB
seeders:74
leechers:11
The Biggest Loser The Workout Weight Loss Yoga 2008 DVDRip XviD

Trackers

tracker name Status checked seeders leechers downloads
udp://tracker.openbittorrent.com:80/announce
outdated 14 Sep 2014 - - -
udp://tracker.publicbt.com:80/announce
outdated 14 Sep 2014 - - -
http://tracker.openbittorrent.com/announce
outdated 11 Jul 2013 - - -
http://exodus.desync.com:6969/announce
blocked 11 Jul 2013 - - -
http://tracker.publicbt.com/announce
deleted 11 Jul 2013 - - -
ĀµTorrent compatible trackers list

Locations

name
ThePirateBay
Limetorrents
Torrent hash: aa6d091358ac9dbaeb6709efd3c529f31de7f7f1

All Comments

audio
8/10
video
8/10
please, leave only comments related to that torrent
or sign-in
0
mikejoseph9 • 02 September 2014, 15:10 Show comment
thanx dude
0
Maraya2114.55K • 01 August 2014, 05:05
torrent downloaded
Show comment
audio: 7video: 7
Good, thanks
0
ahmed.king.1116 • 08 June 2014, 21:05 Show comment
audio: 10video: 10
thanx bro
0
Abrkhan2152 • 04 April 2014, 04:41 Show comment
audio: 9video: 9
Awosome nice quality
0
FluffyBooty144 • 30 March 2014, 16:54
torrent downloaded
Show comment
No sound
Show More

User Opinions

Wolverine187720.79K, Mahakian8667, amayita3044, kitten76552852, alisa_n_alex1474, arnamentia416, akrmba403, toriphile143, running_dream75, cc00734 ... And 197 more
mone11090, albycach539, husky1397, cgk1981369, maximustoo260, caliplage121, raonaid71, AZUMI200564, earthchick41, sudheerg1 ... And 1 more
Report a bug