The.Awakening.2011.DVDRip.XviD.AC3-5.1.Une-CM8

seeders: 2
leechers: 0
Added on Mar 5, 2012 by ChrisDen159.79K in Movies
Torrent verified. Downloaded 64 times.

Available in versions: 1080p720pBDRipHDRiPDVDDVDRipCam
The.Awakening.2011.DVDRip.XviD.AC3-5.1.Une-CM8 (Size: 1.17 GB)
  sample.avi 8.85 MB
  The.Awakening.2011.DVDRip.XviD.AC3-5.1.Une-CM8.avi 1.16 GB
  The.Awakening.2011.DVDRip.XviD.AC3-5.1.Une-CM8.nfo 3.87 KB

Description


image

The.Awakening.2011.DVDRip.XviD.AC3-5.1.Une-CM8


Source: DVDR ripperschoice Thx m8


http://www.imdb.com/title/tt1687901/


General
Complete name : The.Awakening.2011.DVDRip.XviD.AC3-5.1.Une-CM8.avi
Format : AVI
Format/Info : Audio Video Interleave
File size : 1.16 GiB
Duration : 1h 42mn
Overall bit rate : 1 630 Kbps
Writing application : VirtualDubMod 1.5.4.1 (build 2178/release)
Writing library : VirtualDubMod build 2178/release

Video
ID : 0
Format : MPEG-4 Visual
Format profile : Advanced Simple@L5
Format settings, BVOP : No
Format settings, QPel : No
Format settings, GMC : No warppoints
Format settings, Matrix : Custom
Codec ID : XVID
Codec ID/Hint : XviD
Duration : 1h 42mn
Bit rate : 1 175 Kbps
Width : 720 pixels
Height : 304 pixels
Display aspect ratio : 2.35:1
Frame rate : 25.000 fps
Color space : YUV
Chroma subsampling : 4:2:0
Bit depth : 8 bits
Scan type : Progressive
Compression mode : Lossy
Bits/(Pixel*Frame) : 0.215
Stream size : 859 MiB (72%)
Writing library : XviD 1.2.1 (UTC 2008-12-04)

Audio
ID : 1
Format : AC-3
Format/Info : Audio Coding 3
Mode extension : CM (complete main)
Codec ID : 2000
Duration : 1h 42mn
Bit rate mode : Constant
Bit rate : 448 Kbps
Channel(s) : 6 channels
Channel positions : Front: L C R, Side: L R, LFE
Sampling rate : 48.0 KHz
Bit depth : 16 bits
Compression mode : Lossy
Stream size : 328 MiB (27%)
Alignment : Split accross interleaves
Interleave, duration : 96 ms (2.40 video frames)
Interleave, preload duration : 96 ms



1921 England is overwhelmed by the loss and grief of World War I. Hoax exposer Florence Cathcart visits
a boarding school to explain sightings of a child ghost. Everything she knew in unravels as the
'missing' begin to show themselves.


Rebecca Hall ... Florence Cathcart
Dominic West ... Robert Mallory
Imelda Staunton ... Maud Hill
Lucy Cohu ... Constance Strickland
John Shrapnel ... Reverend Hugh Purslow

image
image
image
image
image
image

Related Torrents

torrent name size files age seed leech

Sharing Widget


Download torrent
1.17 GB
seeders:2
leechers:0
The.Awakening.2011.DVDRip.XviD.AC3-5.1.Une-CM8

Trackers

tracker name Status checked seeders leechers downloads
udp://9.rarbg.com:2710/announce
outdated 05 Mar 2012 - - -
http://tracker.openbittorrent.com/announce
outdated 05 Mar 2012 - - -
udp://tracker.1337x.org:80/announce
outdated 05 Mar 2012 - - -
udp://tracker.istole.it:80/announce
outdated 05 Mar 2012 - - -
udp://tracker.openbittorrent.com:80/announce
outdated 05 Mar 2012 - - -
http://tracker.istole.it/announce
outdated 05 Mar 2012 - - -
udp://tracker.publicbt.com:80/announce
outdated 05 Mar 2012 - - -
http://exodus.desync.com:6969/announce
blocked 23 Aug 2012 - - -
http://tracker.publicbt.com/announce
deleted 11 Mar 2013 - - -
http://tracker.tfile.me/announce
deleted 06 Mar 2012 - - -
http://i.bandito.org/announce
deleted 06 Mar 2012 - - -
http://torrentforce.org:2710/announce
pending 05 Mar 2012 0 0 0
udp://torrentforce.org:2710/announce
pending 05 Mar 2012 0 0 0
µTorrent compatible trackers list

Locations

name
KickassTorrents
ExtraTorrent
ThePirateBay
Torrent hash: 8A3164A4030F52FDB54959C9B4EDE0DB11C0EACF

All Comments

audio
9/10
video
9/10
please, leave only comments related to that torrent
or sign-in
0
gregath8507 • 09 March 2012, 16:07
torrent downloaded
Show comment
audio: 9video: 9
Very good quality!Thanks!
0
Hallboy355 • 06 March 2012, 18:10
torrent downloaded
Show comment
ldnt play in the ps3 and/or dvd player
0
Silmarillion246.28K • 06 March 2012, 08:18
torrent downloaded
Show comment
audio: 9video: 9
thanks AJXM

User Opinions

Report a bug