The Avengers 2012 TS XviD AC3 ADTRG

seeders: 5
leechers: 2
Added on May 16, 2012 by ChrisDen162.68K in Movies
Torrent verified. Downloaded 1,801 times.

Summary:
Earth's mightiest heroes must come together and learn to fight as a team if they are to stop the mischievous Loki and his alien army from enslaving humanity.
Submitted by Dr.YeTii266.37K
report summary
The Avengers 2012 TS XviD AC3 ADTRG (Size: 1.91 GB)
  sample.avi 11.28 MB
  The.Avengers.2012.TS.XviD.AC3-ADTRG.avi 1.9 GB
  The.Avengers.2012.TS.XviD.AC3-ADTRG.nfo 2.49 KB

Description

Nick Fury of S.H.I.E.L.D. brings together a team of super humans to form The Avengers to help save the Earth from Loki and his army, While also helping Dragon Exclusive get LiNe for this awesome movie

Source - Video - Chinese HDCAM Thanks
Source - Audio - Dragon Exclusive , awesome work Bro

Complete name : The.Avengers.2012.TS.XviD.AC3-ADTRG.avi
Format : AVI
File size : 1.90 GiB
Duration : 2h 15mn
Overall bit rate : 1 999 Kbps
Writing library : VirtualDub build 34703/release

Video
ID : 0
Format : MPEG-4 Visual
Codec ID : XVID
Bit rate : 1 798 Kbps
Width : 720 pixels
Height : 320 pixels
Display aspect ratio : 2.25:1
Frame rate : 23.976 fps
Stream size : 1.71 GiB (90%)

Audio
ID : 1
Format : AC-3
Bit rate : 192 Kbps
Channel(s) : 2 channels
Channel positions : Front: L R
Stream size : 186 MiB (10%)



Encoder - LiMeY
first off, replaced annoying Marvel intro with clean un logo'd scene. Then blurred and subbed the Black window scene.Ran our magical filters lol, Started Syncing, 18hrs later.. went to bed and got some boom boom, thanks GF, got up, finished syncing. had a cuppa tea with my eggs on toast (over easy)
then checked file, looks and sounds great to me.( some very minor +/- 100ms of in one maybe two places, no biggie) Dont like , grab cam .

So many new releases coming, So hot diggerty dog... lets get to work

Related Torrents

torrent name size files age seed leech

Sharing Widget


Download torrent
1.91 GB
seeders:5
leechers:2
The Avengers 2012 TS XviD AC3 ADTRG

Trackers

tracker name Status checked seeders leechers downloads
udp://tracker.publicbt.com:80/announce
outdated 19 Jul 2012 - - -
udp://tracker.istole.it:80/announce
outdated 19 Jul 2012 - - -
udp://tracker.1337x.org:80/announce
outdated 19 Jul 2012 - - -
udp://tracker.openbittorrent.com:80/announce
outdated 19 Jul 2012 - - -
http://tracker.istole.it/announce
outdated 19 Jul 2012 - - -
http://exodus.desync.com:6969/announce
blocked 23 Aug 2012 - - -
http://tracker.publicbt.com/announce
deleted 11 Mar 2013 - - -
udp://fr33domtracker.h33t.com:3310/announce
deleted 19 Jul 2012 - - -
http://p2p.arenabg.ch:2710/767bac6e26765ba3c6a03b89425cfff8/announce
pending 19 Jul 2012 29 2 1801
http://p2p.arenabg.com:2710/767bac6e26765ba3c6a03b89425cfff8/announce
pending 19 Jul 2012 29 2 1801
ĀµTorrent compatible trackers list

Locations

name
KickassTorrents
Torrent hash: 73DF05C2AA28535F537D27AAB0D1F7D7E7D9927B

All Comments

audio
7/10
video
8/10
please, leave only comments related to that torrent
or sign-in
0
anonymous • 09 July 2012, 12:22 Show comment
is good ??
0
anonymous • 31 May 2012, 09:34 Show comment
audio: 8video: 9
goood
0
SirSeedsAlot89.17K • 17 May 2012, 13:16
torrent downloaded
Show comment
audio: 7video: 7
very watchable..some audio synch issues but nothing major...watch until the very end of credits...

User Opinions

Report a bug