The Avengers 2012 CAM V2 XViD 26K

seeders: 165
leechers: 35
Added on Apr 28, 2012 by hail_alpha66.22K in Movies
Torrent verified. Downloaded 10 times.

The Avengers 2012 CAM V2 XViD 26K (Size: 1.76 GB)
  HDSceneRG.txt 115 bytes
  sample1.avi 30.57 MB
  sample2.avi 33.38 MB
  sample3.avi 36.86 MB
  Sceneunderground.org.txt 77 bytes
  The.Avengers.2012.CAM.V2.XViD-26K.avi 1.66 GB
  The.Avengers.2012.CAM.V2.XViD-26K.nfo 3.85 KB
  Torrent downloaded from Demonoid.me.txt 46 bytes
  Torrent downloaded from rarbg.com.txt.txt 0 bytes
  YouTube Latest Releases And Archive.txt 86 bytes

Description

image

The.Avengers.2012.CAM.V2.XViD-26K

Imdb:
http://www.imdb.com/title/tt0848228/

Plot:
Nick Fury of S.H.I.E.L.D. brings together a team of super humans to form The Avengers to help save the Earth from Loki and his army.

Sources:
video-thnxs
audio-thnxs
subs-greek...

Notes:
same video as before.. but this time cropped out the subs.. so take your pic :)...
enjoy.

Greetz:
Xtreme Encode|FYA|ILLUMANTI|CM8|RX|VISION|HDSCENE|NIGHTMAREZ|xTriLL|DTRG|CRYS|REMIXHD|BIDA|RX|REFILL|INSPiRAL|SIC|HOPE|Anonymous|GooN|P76|MIRAGE|ESCA|KoDeKinG

To all the people who have helped me :P you know who you are

Anything to offer email us @: 26k@hushmail.me

Video
ID : 0
Format : MPEG-4 Visual
Format profile : Advanced Simple@L5
Format settings, BVOP : 2
Format settings, QPel : No
Format settings, GMC : No warppoints
Format settings, Matrix : Default (H.263)
Codec ID : XVID
Codec ID/Hint : XviD
Duration : 2h 11mn
Bit rate : 1 599 Kbps
Width : 720 pixels
Height : 240 pixels
Display aspect ratio : 3.000
Frame rate : 30.000 fps
Color space : YUV
Chroma subsampling : 4:2:0
Bit depth : 8 bits
Scan type : Progressive
Compression mode : Lossy
Bits/(Pixel*Frame) : 0.309
Stream size : 1.47 GiB (89%)
Writing library : XviD 64

Audio
ID : 1
Format : MPEG Audio
Format version : Version 1
Format profile : Layer 3
Mode : Joint stereo
Mode extension : MS Stereo
Codec ID : 55
Codec ID/Hint : MP3
Duration : 1h 43mn
Source duration : 2h 11mn
Bit rate mode : Constant
Bit rate : 192 Kbps
Channel(s) : 2 channels
Sampling rate : 44.1 KHz
Compression mode : Lossy
Stream size : 181 MiB (11%)
Alignment : Aligned on interleaves
Interleave, duration : 26 ms (0.78 video frame)



Screens:
image
image
image
image
image
image
image
image
image
image
image
image
image
image

image
Thank you smallz for banner!

Related Torrents

torrent name size files age seed leech

Sharing Widget


Download torrent
1.76 GB
seeders:165
leechers:35
The Avengers 2012 CAM V2 XViD 26K

Trackers

tracker name Status checked seeders leechers downloads
udp://tracker.openbittorrent.com:80/announce
outdated 13 Oct 2013 - - -
udp://tracker.1337x.org:80/announce
outdated 26 Sep 2013 - - -
http://cpleft.com:2710/announce
outdated 26 Sep 2013 - - -
udp://tracker.publicbt.com:80/announce
outdated 26 Sep 2013 - - -
udp://tracker.istole.it:80/announce
outdated 26 Sep 2013 - - -
http://10.rarbg.com/announce
private 26 Sep 2013 - - -
http://exodus.desync.com:6969/announce
blocked 26 Sep 2013 - - -
udp://fr33domtracker.h33t.com:3310/announce
deleted 26 Sep 2013 - - -
http://tracker.novalayer.org:6969/announce
pending 26 Sep 2013 0 0 0
ĀµTorrent compatible trackers list

Locations

name
KickassTorrents
Torrent hash: 67D77EECEE7C3FE4A3B2FA43D68466CF36DCA5F6

Top Comments

57
Spectre23.5K • 28 Apr 2012, 15:04
torrent downloaded
audio: 7video: 8
Cam rating V:8 A:7.
As far as early releases go this is right up there.
Having seen this at the movies a Cam copy will do me until a screener or rip surfaces.
Hail to the uploader. Lol
40
DeChris28 • 28 Apr 2012, 18:31
torrent downloaded
audio: 8video: 9
For a cam, this is pretty damn good. Regardless, if you want quality, wait more. But that has been said by a ton of people already I digress.
4
TorDigger65.02K • 20 Jun 2012, 15:37
audio: 8video: 9
good

All Comments

audio
6/10
video
6/10
please, leave only comments related to that torrent
or sign-in
0
FroZen-GhoSt5527 • 09 October 2013, 22:50
torrent downloaded
Show comment
audio: 8video: 8
BluRays, DVDs, WebRips etc are all out but seedrs on this CAM Rip Till now Give me a Shock.funk
0
anonymous • 06 October 2013, 21:42 Show comment
audio: 1video: 1
lol why do ppl still download this version? theres perfect rips out there...
0
harry2000380 • 04 October 2013, 02:52
torrent downloaded
Show comment
thnx
1
rrannjith189 • 03 October 2013, 04:17
torrent downloaded
Show comment
audio: 7video: 7
Thanks Uploader
0
HopenDarkness72.68K • 29 September 2013, 21:01
torrent downloaded
Show comment
audio: 5video: 5
0
abhi_nino4167 • 26 September 2013, 15:23
torrent downloaded
Show comment
audio: 7video: 7
thnx for the share
Show More

User Opinions

TeGiiGii4476, Mr.Tol3530, markozlatni1300, Alrhino816, VooDoo1321361, Yakuza_bosS266, Littlelostsoul420223, hidefinition117, redshift4201278, pshyslop3 ... And 1737 more
mark.ledoux2839, Sange2247, godslinux975, karan saluja653, dreamcatcher85416, lucko386, Osp216, G0O0S208, Scraps120144, lexus570144 ... And 303 more
Report a bug