The.Adventures.of.Tintin.2011.DVDRip.XVID AC3-TRiNiTY

seeders: 1
leechers: 0
Added on Feb 20, 2012 in Movies
Torrent verified. Downloaded 0 times.

Summary:
Intrepid reporter Tintin and Captain Haddock set off on a treasure hunt for a sunken ship commanded by Haddock's ancestor.
Submitted by ROBBREDD698444
Not verified report summary
The.Adventures.of.Tintin.2011.DVDRip.XVID AC3-TRiNiTY (Size: 1.09 GB)
  Allycat TRINITY.nfo 3.25 KB
  Read this before playing this Video.txt 222 bytes
  The.Adventures.of.Tintin.2011.DVDRip.XVID AC3-TRiNiTY.avi 1.07 GB
  The.Adventures.of.Tintin.2011.DVDRip.XVID AC3-TRiNiTY.Sample.avi 21.7 MB
  Torrent have been downloaded from Scenetime.com.txt 222 bytes

Description

.
..............................Site Info...........................

- http://www.scenetime.com *_*

SceneTime is going to Close sign up on march/1, hurry up! get in before the doors are closed.

We care to share . Join us on http://www.scenetime.com

Be the first to get new release at http://www.scenetime.com

Seed back for speed


...................................NFO:.................................................
ooooooooooooo ooooooooo. o8o ooooo ooo o8o ooooooooooooo oooooo oooo
8' 888 `8 `888 `Y88. `"' `888b. `8' `"' 8' 888 `8 `888. .8'
888 888 .d88' oooo 8 `88b. 8 oooo 888 `888. .8'
888 888ooo88P' `888 8 `88b. 8 `888 888 `888.8'
888 888`88b. 888 8 `88b.8 888 888 `888'
888 888 `88b. 888 8 `888 888 888 888
o888o o888o o888o o888o o8o `8 o888o o888o o888o
___________ ______
______ ___ /__ /____ _____________ __ /
_ __ `/_ /__ /__ / / / ___/ __ `/ __/
/ /_/ /_ / _ / _ /_/ // /__ / /_/ // /
\__,_/ /_/ /_/ _\__, / \___/ \__,_/ \__/
/____/








EnCoDer:Allycat



General
Complete name : The.Adventures.of.Tintin.2011.DVDRip.XVID AC3-TRiNiTY.avi
Format : AVI
Format/Info : Audio Video Interleave
File size : 1.07 GiB
Duration : 1h 42mn
Overall bit rate : 1 492 Kbps
Writing library : VirtualDub build 30091/release

Video
ID : 0
Format : MPEG-4 Visual
Format profile : Advanced Simple@L5
Format settings, BVOP : 2
Format settings, QPel : No
Format settings, GMC : No warppoints
Format settings, Matrix : Default (H.263)
Codec ID : XVID
Codec ID/Hint : XviD
Duration : 1h 42mn
Bit rate : 1 098 Kbps
Width : 640 pixels
Height : 272 pixels
Display aspect ratio : 2.35:1
Frame rate : 25.000 fps
Color space : YUV
Chroma subsampling : 4:2:0
Bit depth : 8 bits
Scan type : Progressive
Compression mode : Lossy
Bits/(Pixel*Frame) : 0.252
Stream size : 805 MiB (74%)
Writing library : XviD 1.2.1 (UTC 2008-12-04)

Audio
ID : 1
Format : AC-3
Format/Info : Audio Coding 3
Mode extension : CM (complete main)
Codec ID : 2000
Duration : 1h 42mn
Bit rate mode : Constant
Bit rate : 384 Kbps
Channel(s) : 2 channels
Channel positions : Front: L R
Sampling rate : 48.0 KHz
Bit depth : 16 bits
Compression mode : Lossy
Stream size : 282 MiB (26%)
Alignment : Aligned on interleaves
Interleave, duration : 40 ms (1.00 video frame)
Interleave, preload duration : 512 ms

Related Torrents

torrent name size files age seed leech

Sharing Widget


Download torrent
1.09 GB
seeders:1
leechers:0
The.Adventures.of.Tintin.2011.DVDRip.XVID AC3-TRiNiTY

Trackers

tracker name Status checked seeders leechers downloads
udp://tracker.publicbt.com:80/announce
outdated 20 Feb 2012 - - -
http://tracker.openbittorrent.com/announce
outdated 20 Feb 2012 - - -
udp://tracker.openbittorrent.com:80/announce
outdated 20 Feb 2012 - - -
http://tracker.publicbt.com/announce
deleted 11 Mar 2013 - - -
ยตTorrent compatible trackers list

Locations

name
ThePirateBay
Limetorrents
Torrent hash: 3c668b3243e5fb11474f2b7166bb335fa0b261d5

All Comments

audio
10/10
video
10/10
please, leave only comments related to that torrent
or sign-in
0
apexico292 • 22 February 2012, 09:18 Show comment
audio: 10video: 10
Thank you.

User Opinions

apexico292
Report a bug