Advertising (remove)

Szalenstwa Anki Nimfomanki -Polish porn-SILVERDUST

seeders: 2
leechers: 0
Added on Jan 3, 2010 in XXX > Video
Downloaded 0 times.

Szalenstwa Anki Nimfomanki -Polish porn-SILVERDUST (Size: 621.85 MB)
  001.jpg 50.09 KB
  002.jpg 491.38 KB
  Szalenstwa Anki Nimfomanki (Polish).avi 621.32 MB
Advertising (remove)

Description

Szalenstwa Anki Nimfomanki -Polish porn-SILVERDUST
image
http://bender1.zikuka.com/img/2010/01/03/afb1b4ca994763ad446e2988c70b7d80/image6073593.jpg
STUDIO Pink Video

DIRECTOR Marek Frojd
STARRING Mona, Karolina, Kamila, Michelle, Radoslaw Ciemny, Pakerek, Wojtek, Kacper, Jacek, Marko, Spider
----------------------------------------------------------------------------------------------------------------
PLOT What dream village girls? First of all, they want to make a career in show business. To achieve this are ready for the most perverse madness. The film tells the adventures of one of these girls. Anka in search of fame come to a big city. There has to show his skill in the art of erotic, including anal sex. If you want to polish a large dose of erotica at its best, then you must see this film. Six excellent sex scenes will satisfy even the most amateur of acute ruchania on a glass screen. Girls in this film are really nice. Demonstrate the attractiveness of the Polish women.
image

image

image

image

image

image

image

image

image

image

image

image

image

image

image

image

image

image

image

image

image

image

image

image

image
http://bender1.zikuka.com/img/2010/01/03/d2636ec6fbc318a92d4a571f0a4be483/image6144484.jpg
http://bender1.zikuka.com/img/2010/01/03/b6fcf6dacbc54484b8050eb91713bb6a/image6146187.jpg
http://bender1.zikuka.com/img/2010/01/03/92838bfad4a6b758c4feb89bf2496541/image6147750.jpg
http://bender1.zikuka.com/img/2010/01/03/c37f09a29b8eeffad476cf2929c12449/image6149031.jpg
http://bender1.zikuka.com/img/2010/01/03/402cacb9f851df48e8a78b47cae88e06/image6150265.jpg
http://bender1.zikuka.com/img/2010/01/03/e47a63bd9b4b4c9b310aef839a861a4f/image6151609.jpg
http://bender1.zikuka.com/img/2010/01/03/837356f608b047021fe2e0520bc1b598/image6153031.jpg
http://bender1.zikuka.com/img/2010/01/03/ce41256a4b77a4f3a53c5607ff3072de/image6154656.jpg
http://bender1.zikuka.com/img/2010/01/03/176c4971d91162f07f8a6376a1203dc5/image6156250.jpg
http://bender1.zikuka.com/img/2010/01/03/1c5399e47d1a86eab4c1aaa720b7088a/image6157781.jpg
http://bender1.zikuka.com/img/2010/01/03/30045cfe42212e0f2aff486e9c81f919/image6159187.jpg
http://bender1.zikuka.com/img/2010/01/03/8a1ea12cab1d9581c18b03302bedbd0d/image6161390.jpg
http://bender1.zikuka.com/img/2010/01/03/a4fff23a183240cf94ad19d35e510744/image6162906.jpg
http://bender1.zikuka.com/img/2010/01/03/89de218e8e053c2792de0e2a2f01119c/image6164296.jpg
http://bender1.zikuka.com/img/2010/01/03/9a6a18d237fb45d53d28247d9aa9ae82/image6166140.jpg
http://bender1.zikuka.com/img/2010/01/03/cef5c3a31a615c046443be5499f27333/image6167781.jpg
http://bender1.zikuka.com/img/2010/01/03/a845f3f27673a752a125e6b4fe8ac774/image6169468.jpg
http://bender1.zikuka.com/img/2010/01/03/ca5a607943402ed7783256854c2f453b/image6171265.jpg
http://bender1.zikuka.com/img/2010/01/03/60392f4e5a3fe142c4ad9a971d064e54/image6172750.jpg
http://bender1.zikuka.com/img/2010/01/03/d2058537b7e1e9c6a6fbe2e5c291c74f/image6174203.jpg
http://bender1.zikuka.com/img/2010/01/03/74ff97810d8ce85cd2976153d0ee6981/image6175640.jpg
http://bender1.zikuka.com/img/2010/01/03/3d21c0b55d73a8ca7052af3258b215d8/image6177531.jpg
http://bender1.zikuka.com/img/2010/01/03/aac8d1b8642efe512a32f3291de2ec84/image6178953.jpg
http://bender1.zikuka.com/img/2010/01/03/67726e24b1ae56b59c36b14de901b9f9/image6180500.jpg
http://bender1.zikuka.com/img/2010/01/03/9dab7da899db626f6604b01ff4bc8e7f/image6181875.jpg
Format : AVI
Format/Info : Audio Video Interleave
File size : 621 MiB
Duration : 1h 23mn
Overall bit rate : 1 034 Kbps
Writing library : VirtualDub build 16297/release

Video
Format : MPEG-4 Visual
Format profile : Simple@L3
Format settings, BVOP : Yes
Format settings, QPel : No
Format settings, GMC : No warppoints
Format settings, Matrix : Default
Muxing mode : Packed bitstream
Codec ID : XVID
Codec ID/Hint : XviD
Duration : 1h 23mn
Bit rate : 969 Kbps
Width : 640 pixels
Height : 472 pixels
Display aspect ratio : 4/3
Frame rate : 25.000 fps
Resolution : 24 bits
Colorimetry : 4:2:0
Scan type : Progressive
Bits/(Pixel*Frame) : 0.128
Stream size : 582 MiB (94%)
Writing library : XviD 1.0.2 (UTC 2004-08-29)

Audio
Format : MPEG Audio
Format version : Version 2
Format profile : Layer 3
Codec ID : 55
Codec ID/Hint : MP3
Duration : 1h 23mn
Bit rate mode : Constant
Bit rate : 56.0 Kbps
Channel(s) : 2 channels
Sampling rate : 22.05 KHz
Resolution : 16 bits
Stream size : 33.5 MiB (5%)
Alignment : Split accross interleaves
Interleave, duration : 40 ms (1.00 video frame)
Interleave, preload duration : 500 ms
A simple thankyou ensures my seedboxes are given priority on this file!(you will get the file faster)
No thanks=No re-seeds,No help~No worries i can't be arsed either.
Screens are posted for this file,how-ever some sites do not allow all picture hosts(and i do not have time upload pics to a certain host for a specific site).
I will not respond in this thread to any comments from now on(unless you are a member of a private site or are a respected member of a public site).
Thankyou to all the REAL contributors to the sites who keep the faith everyday.
Leechers,Ass-wipes,Zero posters keep on moaning into our deaf ears.
Contact? Old Skool-respected only (you know how);-)
http://www.fhqhosting.com/ui/1ggggg.swf
image
image

Related Torrents

torrent name size files age seed leech

Sharing Widget


Download torrent
621.85 MB
seeders:2
leechers:0
Szalenstwa Anki Nimfomanki -Polish porn-SILVERDUST

Trackers

tracker name Status checked seeders leechers downloads
http://tracker.openbittorrent.com/announce
outdated 02 May 2010 - - -
udp://tracker.publicbt.com:80/announce
outdated 03 Jan 2010 - - -
udp://tracker.openbittorrent.com:80/announce
outdated 03 Jan 2010 - - -
http://tracker.publicbt.com/announce
deleted 11 Mar 2013 - - -
ĀµTorrent compatible trackers list

Locations

name
ThePirateBay
Torrentzap
ExtraTorrent
Torrent hash: 1f68e1b12ab1e9883418023f47c48fc1249720e0

All Comments

audio
0/10
video
0/10
please, leave only comments related to that torrent
or sign-in
0
Sonya_Brams168 • 28 November 2010, 18:43
torrent downloaded
Show comment
Interesting....very European
0
3dkhurram1757 • 30 September 2010, 16:39
torrent downloaded
Show comment
Sexy

User Opinions

Report a bug