Surrogates (2009) DVDRip XviD-MAX

seeders: 16
leechers: 1
Added on Oct 17, 2009 in Movies
Torrent verified. Downloaded 10 times.

Summary:
Set in a futuristic world where humans live in isolation and interact through surrogate robots, a cop is forced to leave his home for the first time in years in order to investigate the murders of others' surrogates.
Submitted by thePiratePimp49.61K
report summary
Surrogates (2009) DVDRip XviD-MAX (Size: 1.35 GB)
  Surrogates (2009) DVDRip XviD-MAXSPEED www.torentz.3xforum.ro.avi 1.35 GB
  screencaps.jpg 263 KB
  Surrogates (2009) DVDRip XviD-MAXSPEED.nfo 2.44 KB
  Torrent downloaded from Demonoid.com.txt 47 bytes
  Torrent verified and recommended by vertor.com.txt 46 bytes
  Torrent downloaded from Rarbg.com.txt 33 bytes
  tracked_by_h33t_com.txt 23 bytes

Description

Surrogates (2009) R5 DVDRip XviD-MAX Torrent Free Download

Format : AVI
Format/Info : Audio Video Interleave
Format profile : OpenDML
File size : 1.35 GiB
Duration : 1h 24mn
Overall bit rate : 2 281 Kbps
Writing application : VirtualDubMod 1.5.10.2 (build 2542/release)
Writing library : VirtualDubMod build 2542/release
Original source form : MAX TORRENTZ
Copyright : SIGISMUNT

Video
ID : 0
Format : MPEG-4 Visual
Format profile : AdvancedSimple@L5
Format settings, BVOP : Yes
Format settings, QPel : No
Format settings, GMC : 3 warppoints
Format settings, Matrix : Default (MPEG)
Codec ID : XVID
Codec ID/Hint : XviD
Duration : 1h 24mn
Bit rate : 2 081 Kbps
Width : 720 pixels
Height : 304 pixels
Display aspect ratio : 2.35:1
Frame rate : 25.000 fps
Resolution : 24 bits
Colorimetry : 4:2:0
Scan type : Progressive
Bits/(Pixel*Frame) : 0.380
Stream size : 1.23 GiB (91%)
Writing library : XviD 1.2.1 (UTC 2008-12-04)

Audio
ID : 1
Format : MPEG Audio
Format version : Version 1
Format profile : Layer 3
Codec ID : 55
Codec ID/Hint : MP3
Duration : 1h 24mn
Bit rate mode : Constant
Bit rate : 192 Kbps
Channel(s) : 2 channels
Sampling rate : 44.1 KHz
Resolution : 16 bits
Stream size : 117 MiB (8%)
Alignment : Aligned on interleaves
Interleave, duration : 26 ms (0.65 video frame)
Interleave, preload duration : 182 ms

Screens:
http://www.postimg.com/image/8000/7192.jpg
http://www.postimg.com/image/8000/7193.jpg
http://www.postimg.com/image/8000/7194.jpg
http://www.postimg.com/image/8000/7195.jpg

ScreenCaps:
http://www.postimg.com/image/8000/7196.jpg

Surrogates (2009) R5 DVDRip XviD-MAX Torrent Free Download

Related Torrents

torrent name size files age seed leech

Sharing Widget


Download torrent
1.35 GB
seeders:16
leechers:1
Surrogates (2009) DVDRip XviD-MAX

Trackers

tracker name Status checked seeders leechers downloads
udp://tracker.openbittorrent.com:80/announce
outdated 12 Sep 2014 - - -
udp://tracker.istole.it:80/announce
outdated 12 Sep 2014 - - -
udp://tracker.publicbt.com:80/announce
outdated 12 Sep 2014 - - -
udp://tracker.1337x.org:80/announce
outdated 27 Sep 2013 - - -
http://exodus.desync.com:6969/announce
blocked 27 Sep 2013 - - -
udp://tracker.ccc.de:80/announce
deleted 27 Sep 2013 - - -
udp://fr33domtracker.h33t.com:3310/announce
deleted 27 Sep 2013 - - -
µTorrent compatible trackers list

Locations

name
ThePirateBay
TorrentReactor
ExtraTorrent
Torrentzap
BTjunkie
BTjunkie
KickassTorrents
Newtorrents
SumoTorrent
SumoTorrent
SumoTorrent
SumoTorrent
SumoTorrent
SumoTorrent
SumoTorrent
SumoTorrent
Torrent hash: 5099de1ec33e05d4501f22090da7953e5649c14c

All Comments

audio
9/10
video
9/10
please, leave only comments related to that torrent
or sign-in
0
bariskos845 • 27 October 2014, 05:54
torrent downloaded
Show comment
audio: 9video: 9
Thanks.
0
gavkin416 • 04 September 2014, 00:28
torrent downloaded
Show comment
enjoyed this
thanks again

8/10
0
Earthnut1454 • 09 June 2014, 17:00
torrent downloaded
Show comment
audio: 9video: 9
Very good audio and video, thank you.
0
mando_4808605 • 28 December 2013, 09:40
torrent downloaded
Show comment
audio: 10video: 10
great
0
anonymous • 05 December 2013, 12:18 Show comment
audio: 7video: 2
quite a webrip.. don't download if you want to watch a quality version of this movie.. 7/2
0
PapaGrumbles173 • 26 November 2013, 18:16
torrent downloaded
Show comment
audio: 9video: 9
Great upload. No issues with upload. Confirmed DVD quality. Will seed for sure.
0
aXel921055 • 11 November 2013, 19:58
torrent downloaded
Show comment
audio: 9video: 9
Thanks for uploading
0
nik51183 • 08 November 2013, 09:57
torrent downloaded
Show comment
Thanks a lot!!! A8V10
0
miske13901377 • 28 October 2013, 21:58
torrent downloaded
Show comment
audio: 10video: 10
perfect tnx :D
0
flap57681147 • 04 September 2013, 14:58
torrent downloaded
Show comment
audio: 9video: 9
good copy great movie good download
Show More

User Opinions

Report a bug