Super 8 2011 DVDSCR XVID AC3 - SPEEDY

seeders: 0
leechers: 1
Added on Aug 5, 2011 in Movies
Torrent verified. Downloaded 0 times.

Super 8 2011 DVDSCR XVID AC3 - SPEEDY (Size: 695.37 MB)
  Downloaded from www.scenetime.com.txt 195 bytes
  Read This Guide First.txt 195 bytes
  Super 8 2011 DVDSCR XVID AC3 - SPEEDY-sample.avi 8.46 MB
  Super 8 2011 DVDSCR XVID AC3 - SPEEDY.NFO 3.47 KB
  Super 8 2011 DVDSCR XVID AC3 - SPEEDY.part01.rar 14.31 MB
  Super 8 2011 DVDSCR XVID AC3 - SPEEDY.part02.rar 14.31 MB
  Super 8 2011 DVDSCR XVID AC3 - SPEEDY.part03.rar 14.31 MB
  Super 8 2011 DVDSCR XVID AC3 - SPEEDY.part04.rar 14.31 MB
  Super 8 2011 DVDSCR XVID AC3 - SPEEDY.part05.rar 14.31 MB
  Super 8 2011 DVDSCR XVID AC3 - SPEEDY.part06.rar 14.31 MB
  Super 8 2011 DVDSCR XVID AC3 - SPEEDY.part07.rar 14.31 MB
  Super 8 2011 DVDSCR XVID AC3 - SPEEDY.part08.rar 14.31 MB
  Super 8 2011 DVDSCR XVID AC3 - SPEEDY.part09.rar 14.31 MB
  Super 8 2011 DVDSCR XVID AC3 - SPEEDY.part10.rar 14.31 MB
  Super 8 2011 DVDSCR XVID AC3 - SPEEDY.part11.rar 14.31 MB
  Super 8 2011 DVDSCR XVID AC3 - SPEEDY.part12.rar 14.31 MB
  Super 8 2011 DVDSCR XVID AC3 - SPEEDY.part13.rar 14.31 MB
  Super 8 2011 DVDSCR XVID AC3 - SPEEDY.part14.rar 14.31 MB
  Super 8 2011 DVDSCR XVID AC3 - SPEEDY.part15.rar 14.31 MB
  Super 8 2011 DVDSCR XVID AC3 - SPEEDY.part16.rar 14.31 MB
  Super 8 2011 DVDSCR XVID AC3 - SPEEDY.part17.rar 14.31 MB
  Super 8 2011 DVDSCR XVID AC3 - SPEEDY.part18.rar 14.31 MB
  Super 8 2011 DVDSCR XVID AC3 - SPEEDY.part19.rar 14.31 MB
  Super 8 2011 DVDSCR XVID AC3 - SPEEDY.part20.rar 14.31 MB
  Super 8 2011 DVDSCR XVID AC3 - SPEEDY.part21.rar 14.31 MB
  Super 8 2011 DVDSCR XVID AC3 - SPEEDY.part22.rar 14.31 MB
  Super 8 2011 DVDSCR XVID AC3 - SPEEDY.part23.rar 14.31 MB
  Super 8 2011 DVDSCR XVID AC3 - SPEEDY.part24.rar 14.31 MB
  Super 8 2011 DVDSCR XVID AC3 - SPEEDY.part25.rar 14.31 MB
  Super 8 2011 DVDSCR XVID AC3 - SPEEDY.part26.rar 14.31 MB
  And 22 files more

Description

.

http://www.scenetime.com - SceneTime [ We been having it ] !!!


How come you press harder on a remote control when you know the battery is dead? so you better seed to get speed ;)

Seed back for speed


...................................NFO:.................................................image



Super 8 2011 DVDSCR XVID AC3 - SPEEDY




IMDB: http://www.imdb.com/title/tt1650062/





language: ENGLISH






General



Complete name : Super 8 2011 DVDSCR XVID AC3 - SPEEDY.avi
Format : AVI
Format/Info : Audio Video Interleave
Format profile : OpenDML
Format settings : rec
File size : 695 MiB
Duration : 1h 51mn
Overall bit rate : 868 Kbps






Video


ID : 0
Format : MPEG-4 Visual
Format profile : Advanced Simple@L5
Format settings, BVOP : 2
Format settings, QPel : No
Format settings, GMC : No warppoints
Format settings, Matrix : Default (H.263)
Codec ID : XVID
Codec ID/Hint : XviD
Duration : 1h 51mn
Bit rate : 414 Kbps
Width : 720 pixels
Height : 304 pixels
Display aspect ratio : 2.35:1
Frame rate : 29.970 fps
Color space : YUV
Chroma subsampling : 4:2:0
Bit depth : 8 bits
Scan type : Progressive
Compression mode : Lossy
Bits/(Pixel*Frame) : 0.063
Stream size : 331 MiB (48%)





Audio



ID : 1
Format : AC-3
Format/Info : Audio Coding 3
Mode extension : CM (complete main)
Codec ID : 2000
Duration : 1h 51mn
Bit rate mode : Constant
Bit rate : 448 Kbps
Channel(s) : 2 channels
Channel positions : Front: L R
Sampling rate : 48.0 KHz
Bit depth : 16 bits
Compression mode : Lossy
Stream size : 359 MiB (52%)
Alignment : Aligned on interleaves
Interleave, duration : 64 ms (1.92 video frames)
Interleave, preload duration : 192 ms





PLOT

Storyline

In the summer of 1979, a group of friends in a small Ohio town witness a catastrophic train crash while making a super 8 movie and soon suspect that it was not an accident. Shortly after, unusual disappearances and inexplicable events begin to take place in town, and the local Deputy tries to uncover the truth - something more terrifying than any of them could have imagined. Written by Official site


Genres: Mystery | Sci-Fi | Thriller


Director:
J.J. Abrams
Writer:
J.J. Abrams
Stars:
Elle Fanning, Amanda Michalka and Kyle Chandler



SCREENS

image
image
image
image
image
image
image




GREETS:

SPEEDY / IMAGINE / AND ALL

Sharing Widget


Download torrent
695.37 MB
seeders:0
leechers:1
Super 8 2011 DVDSCR XVID AC3 - SPEEDY

Trackers

tracker name Status checked seeders leechers downloads
udp://tracker.publicbt.com:80/announce
outdated 05 Aug 2011 - - -
http://tracker.openbittorrent.com/announce
outdated 05 Aug 2011 - - -
udp://tracker.openbittorrent.com:80/announce
outdated 05 Aug 2011 - - -
http://tracker.publicbt.com/announce
deleted 18 Aug 2011 - - -
┬ÁTorrent compatible trackers list

Locations

name author
ThePirateBay scenebalance
Torrent hash: cab608ae656237c85546a67f273560eb5f540725

All Comments

audio
0/10
video
0/10
please, leave only comments related to that torrent
or sign-in
Report a bug