Suicide Kings =Special Edition DVD= [1998]

seeders: 1
leechers: 2
Added on Aug 19, 2012 by Carjacker1812 in Movies
Torrent verified. Downloaded 0 times.

Suicide Kings =Special Edition DVD= [1998] (Size: 1.61 GB)
  Suicide Kings =Special Edition DVD= [1998].mkv 1.54 GB
  Suicide Kings =Special Edition DVD= [1998].nfo 3.83 KB
  Suicide Kings Alt.Ending.mkv 72.13 MB
  Suicide Kings.jpg 20.58 KB

Description

*****************************************************************************************
Suicide Kings =Special Edition DVD= [1998]w/Alt. Ending Included
-------------------------------------------------------------------
**While the IMDB site says that the movie was released in 1997 - The Special Edition DVD has the year *1998* printed as the release time, on both the DVD itself and on the back cover print.
Synopsis:
Ex-mob boss Christopher Walken is kidnapped by a group of four kids in a haphazard attempt at paying the ransom for another, separate kidnapping. Complexities arise as the group cannot seem to do anything right.

Director:
Peter O'Fallon
Writers:
Josh McKinney (screenplay), Gina Goldman (screenplay)
Stars:
Christopher Walken, Denis Leary and Sean Patrick Flanery ****************************************************************************************
Format : Matroska
Format version : Version 2
File size : 1.54 GiB
Duration : 1h 46mn
Overall bit rate : 2 068 Kbps

Video
Format : AVC
Format/Info : Advanced Video Codec
Format profile : High@L3.0
Duration : 1h 46mn
Bit rate : 1 642 Kbps
Width : 720 pixels
Height : 464 pixels
Display aspect ratio : 16:9
Original display aspect ratio : 16:9
Frame rate mode : Variable
Frame rate : 23.976 fps
Bits/(Pixel*Frame) : 0.205
Stream size : 1.22 GiB (79%)
Writing library : x264 core 120
Language : English
Default : Yes
Forced : No

Audio
Format : AC-3
Format/Info : Audio Coding 3
Codec ID : A_AC3
Duration : 1h 46mn
Bit rate mode : Constant
Bit rate : 384 Kbps
Channel(s) : 6 channels
Sampling rate : 48.0 KHz
Stream size : 293 MiB (19%)
Language : English
Default : Yes
Forced : No
***************************************************************************************
NOTE FOR MY MOVIE TORRENTS: Movie has been hashed with an MD5 checker and is listed below. MD5 programs are designed to verify data integrity using the MD5 (Message-Digest algorithm 5) 128-bit cryptographic hash. MD5 hashes used properly can confirm both file integrity and authenticity.
In terms of integrity, an MD5 hash comparison detects changes in files that would cause errors. It is a very good idea to run a MD5 hash comparison check when you have a large file such as a movie or.iso downloads.
***************************************************************************************
Movie MD5: a76817a6ac84018a56d93cf60fd6d43e
---------------------------------------------------------------------------------------
MD5 Checker for Linux: http://sinf.gr/en/hashcalc.html
MD5 Checker for Windows: http://getmd5checker.com/
---------------------------------------------------------------------------------------
This was personally encoded by me, Carjacker,from the Special Edition DVD. Enjoy!
Leave your thoughts/opinions and ratings on the A/V of this film for others to see. Thanks!

Related Torrents

torrent name size files age seed leech

Sharing Widget


Download torrent
1.61 GB
seeders:1
leechers:2
Suicide Kings =Special Edition DVD= [1998]

Trackers

tracker name Status checked seeders leechers downloads
udp://tracker.openbittorrent.com:80/announce
outdated 04 Jun 2014 - - -
udp://tracker.publicbt.com:80/announce
outdated 04 Jun 2014 - - -
udp://tracker.istole.it:80/announce
outdated 04 Jun 2014 - - -
http://tracker.istole.it/announce
outdated 24 Nov 2012 - - -
udp://tracker.1337x.org:80/announce
outdated 24 Nov 2012 - - -
http://exodus.desync.com:6969/announce
blocked 24 Nov 2012 - - -
udp://fr33domtracker.h33t.com:3310/announce
deleted 24 Nov 2012 - - -
http://tracker.publicbt.com/announce
deleted 24 Nov 2012 - - -
ĀµTorrent compatible trackers list

Locations

name
KickassTorrents
Torrent hash: A7C1D22B3060B217F4B78C998EA6EA026370F4AA

All Comments

audio
0/10
video
0/10
please, leave only comments related to that torrent
or sign-in
0
anonymous • 13 October 2013, 00:12 Show comment
Sick movie...I lost two copies to friends, thank you for uploading. R
Report a bug