Suddenly It's Magic (2012) DVDRip

seeders: 33
leechers: 2
Added on Dec 28, 2012 by junreygc4812 in Movies
Torrent verified. Downloaded 125 times.

Available in versions: DVDRip
Suddenly It's Magic (2012) DVDRip (Size: 699.77 MB)
  Suddenly It's Magic (2012) DVDRip.avi 699.77 MB

Description

Spoken Language: Tagalog

Poster:

http://image.bayimg.com/d3700e5ac3e106ea3b902f81e23709362a9989f1.jpg

Screens:

http://img826.imageshack.us/img826/2338/vlcsnap2012122904h45m01.png

http://img547.imageshack.us/img547/9200/vlcsnap2012122904h45m34.png

http://img22.imageshack.us/img22/6065/vlcsnap2012122904h45m50.png

[General]
Format: AVI
Format/Info: Audio Video Interleave
File size: 700 MiB
Duration: 1h 47mn
Overall bit rate: 911 Kbps

[Video]
Format: xvid
Codec ID: xvid
Bit rate: 769 Kbps
Width: 720 pixels
Height: 400 pixels
Display aspect ratio: 16:9
Frame rate: 29.970 fps
Bits/(Pixel*Frame): 0.089
Stream size: 591 MiB (84%)

[Audio]
Format: MPEG Audio
Format version: Version 1
Format profile: Layer 3
Mode: Joint stereo
Mode extension: MS Stereo
Codec ID: 55
Codec ID/Hint: MP3
Duration: 1h 47mn
Bit rate mode: Constant
Bit rate: 128 Kbps
Channel(s): 2 channels
Sampling rate: 48.0 KHz
Compression mode: Lossy
Stream size: 98.3 MiB (14%)
Alignment: Aligned on interleaves
Interleave, duration: 24 ms (0.72 video frame)

Related Torrents

torrent name size files age seed leech

Sharing Widget


Download torrent
699.77 MB
seeders:33
leechers:2
Suddenly It's Magic (2012) DVDRip

Trackers

tracker name Status checked seeders leechers downloads
udp://tracker.openbittorrent.com:80/announce
outdated 15 Jan 2014 - - -
udp://tracker.publicbt.com:80/announce
outdated 15 Jan 2014 - - -
udp://tracker.istole.it:80/announce
outdated 22 Aug 2013 - - -
udp://tracker.1337x.org:80/announce
outdated 22 Aug 2013 - - -
http://cpleft.com:2710/announce
outdated 22 Aug 2013 - - -
http://exodus.desync.com:6969/announce
blocked 22 Aug 2013 - - -
udp://fr33dom.h33t.com:3310/announce
deleted 22 Aug 2013 - - -
udp://fr33domtracker.h33t.com:3310/announce
deleted 22 Aug 2013 - - -
http://fr33dom.h33t.com:3310/announce
deleted 22 Aug 2013 - - -
udp://9.rarbg.com:2710/announce
pending 15 Jan 2014 27 2 125
ĀµTorrent compatible trackers list

Locations

name author
KickassTorrents junreygc
Torrent hash: FA76FAB75B1B3C318098D97B523E3D746366B54B

All Comments

audio
8/10
video
8/10
please, leave only comments related to that torrent
or sign-in
0
anonymous • 19 November 2013, 15:11 Show comment
audio: 9video: 9
thank you[:Qbiggrin]
0
Greyscire480 • 23 October 2013, 08:24
torrent downloaded
Show comment
audio: 9video: 9
thanks!
0
anonymous • 08 July 2013, 01:37 Show comment
audio: 10video: 10
Thanks for the good quality!! THUMBS UP!!!!!!
0
Bambalahei270 • 25 June 2013, 22:35 Show comment
is it with english subbtitle?
0
DonOrochi2 • 20 May 2013, 21:54 Show comment
audio: 9video: 9
thanks a lot...good copy..great job man!!!try to keep the pace for an excellent work next time :))
0
anonymous • 25 April 2013, 03:23 Show comment
audio: 9video: 8
The video is being pixelated when you toggle the full screen mode. But it can still be seen all throughout. Good copy! Download it!
0
anonymous • 25 March 2013, 12:03 Show comment
is this the filipino one?
0
anonymous • 05 April 2013, 23:45 Show comment
yea
0
ChiakiKuri362 • 04 March 2013, 15:00
torrent downloaded
Show comment
audio: 7video: 8
thanks uploader ^^
yeah the quality was bad. but not that bad bad. it was simple bad.
still watchable =)
0
Kalasag777140 • 12 February 2013, 03:51
torrent downloaded
Show comment
audio: 8video: 8
not bad
0
MoonChild5532 • 07 February 2013, 08:22
torrent downloaded
Show comment
audio: 9video: 9
Thank you UL. :)
Show More

User Opinions

MoonChild5532, champion0073397, MovieMunster1226, ridge_trekker565, Greyscire480, Ted 22375, guyokutz346, dyey323, hominidae2011211, nugger14424157 ... And 16 more
hobbok1287, caressa0139
Report a bug