Street Fighter Legend Of Chun Li[2009]DvDrip-LW

seeders: 0
leechers: 0
Added on Jun 16, 2009 in Movies
Downloaded 0 times.

Street Fighter Legend Of Chun Li[2009]DvDrip-LW (Size: 699.78 MB)
  Movie
  Movie Info
  Trackers
  Cover.jpg 73.6 KB
  DVD COVER.jpg 40.8 KB

Description

-------------------------------------------------
F I L E - I N F O
-------------------------------------------------
TITLE......[ Street Fight: Legend Of Chun Li
YEAR.......[ 2009
GENRE......[ Action
RUNTIME....[ 01:37:22
STORE DATE.[ 2009 (USA)
IMDB RATE..[ 4.2/10 (2,819 Votes)
IMDB URL...[ http://www.imdb.com/title/tt0891592/
-------------------------------------------------
Format : AVI
Format/Info : Audio Video Interleave
File size : 700 MiB
Duration : 1h 37mn
Overall bit rate : 1 005 Kbps
Writing application : VirtualDubMod 1.5.10.2 (build 2542/release)
Writing library : VirtualDubMod build 2542/release
SOURCE : DVD
-------------------------------------------------
V I D E O
-------------------------------------------------
Format : MPEG-4 Visual
Format profile : Streaming Video@L1
Format settings, BVOP : Yes
Format settings, QPel : No
Format settings, GMC : No warppoints
Format settings, Matrix : Default (MPEG)
Muxing mode : Packed bitstream
Codec ID : XVID
Codec ID/Hint : XviD
Duration : 1h 37mn
Bit rate : 843 Kbps
Width : 640 pixels
Height : 272 pixels
Display aspect ratio : 2.35
Frame rate : 23.976 fps
Resolution : 24 bits
Colorimetry : 4:2:0
Scan type : Progressive
Bits/(Pixel*Frame) : 0.202
Stream size : 587 MiB (84%)
Writing library : XviD 1.2.1
-------------------------------------------------
A U D I O
-------------------------------------------------
Format : MPEG Audio
Format version : Version 1
Format profile : Layer 3
Codec ID : 55
Codec ID/Hint : MP3
Duration : 1h 37mn
Bit rate mode : Variable
Bit rate : 149 Kbps
Minimum bit rate : 128 Kbps
Channel(s) : 2 channels
Sampling rate : 48.0 KHz
Resolution : 16 bits
Stream size : 104 MiB (15%)
Alignment : Aligned on interleaves
Interleave, duration : 24 ms (0.58 video frame)
Interleave, preload duration : 123 ms
Writing library : LAME3.98r
Encoding settings : VBR
-------------------------------------------------
P L O T
-------------------------------------------------
Undercover agent Chun Li (Kristin Kreuk) seeks
justice and peace in this action-packed adaptation
of the megahit video game franchise Street Fighter.
Employing her signature high-kicking style, Chun Li
is a force to be reckoned with. The cast includes
Neal McDonough as M. Bison, Chris Klein as Nash,
Michael Clarke Duncan as Balrog and Black Eyed Peas
singer Taboo as Vega. Chun Li is known in gamer
circles as "the First Lady of Fighting Games."

Starring: Michael Clarke Duncan, Kristin Kreuk

Director: Andrzej Bartkowiak
-------------------------------------------------

Related Torrents

torrent name size files age seed leech

Sharing Widget


Download torrent
699.78 MB
seeders:0
leechers:0
Street Fighter Legend Of Chun Li[2009]DvDrip-LW

Trackers

tracker name Status checked seeders leechers downloads
http://tracker.openbittorrent.com/announce
outdated 03 Sep 2013 - - -
http://www.h33t.com:3310/announce
deleted 09 Nov 2012 - - -
http://scenedemon.com/announce.php
private 16 Jun 2009 - - -
µTorrent compatible trackers list

Locations

name
ThePirateBay
TorrentPortal
SumoTorrent
Torrent hash: 5a99c9909329a3315ed55829d92f1a3ca9e0a828

All Comments

audio
9/10
video
9/10
please, leave only comments related to that torrent
or sign-in
0
anonymous • 06 January 2014, 14:19 Show comment
audio: 10video: 9
Thanks good quality
0
lonewolfmoon2134 • 06 May 2013, 00:24
torrent downloaded
Show comment
audio: 9video: 9

User Opinions

Blaqie6118, 1980coelho1592, CuteStamp1266, fmcs975, Xalace854, AAcepik774, superdjwacko540, vadko455, pekasailo165, DJShynin157 ... And 7 more
kronus129
Report a bug